The Matrix Revolutions (2003)

Posted By: Tavaz
1080p (FullHD) / BDRip IMDb
The Matrix Revolutions (2003)

The Matrix Revolutions (2003)
BDRip | MKV | 1920x796 | English | H265 @ 2497 kbps | AC-3 @ 448 kbps | 2 h 9 min | 2.67 GiB
Subtitles: English
Genre: Action, Sci-Fi

The human city of Zion defends itself against the massive invasion of the machines as Neo fights to end the war at another front while also opposing the rogue Agent Smith.

d713163891c849dd839e913fdf39f71f.mkv (2.7 GB)



General
Unique ID : 172434937993707672075296569912516038490 (0x81B9C2D4706A75088AD2B369D7E24F5A)
Complete name : ./d713163891c849dd839e913fdf39f71f.mkv
Format : Matroska
Format version : Version 2
File size : 2.67 GiB
Duration : 2 h 9 min
Overall bit rate : 2 954 kb/s
Movie name : The Matrix Revolutions 2003 BluRay 10Bit 1080p DD5.1 H265-d3g
Encoded date : UTC 2018-01-14 08:46:10
Writing application : DVDFab 10.0.7.7
Writing library : libebml v1.3.4 + libmatroska v1.4.5

Video
ID : 1
Format : HEVC
Format/Info : High Efficiency Video Coding
Format profile : Main 10@L4@Main
Codec ID : V_MPEGH/ISO/HEVC
Duration : 2 h 9 min
Bit rate : 2 498 kb/s
Width : 1 920 pixels
Height : 796 pixels
Display aspect ratio : 2.40:1
Frame rate mode : Constant
Frame rate : 23.976 (24000/1001) FPS
Color space : YUV
Chroma subsampling : 4:2:0
Bit depth : 10 bits
Bits/(Pixel*Frame) : 0.068
Stream size : 2.26 GiB (85%)
Default : Yes
Forced : No
Color range : Limited
Color primaries : BT.709
Transfer characteristics : BT.709
Matrix coefficients : BT.709

Audio
ID : 2
Format : AC-3
Format/Info : Audio Coding 3
Format settings, Endianness : Big
Codec ID : A_AC3
Duration : 2 h 9 min
Bit rate mode : Constant
Bit rate : 448 kb/s
Channel(s) : 6 channels
Channel positions : Front: L C R, Side: L R, LFE
Sampling rate : 48.0 kHz
Frame rate : 31.250 FPS (1536 SPF)
Bit depth : 16 bits
Compression mode : Lossy
Stream size : 414 MiB (15%)
Language : English
Service kind : Complete Main
Default : Yes
Forced : No

Text
ID : 3
Format : VobSub
Codec ID : S_VOBSUB
Codec ID/Info : Picture based subtitle format used on DVDs
Duration : 2 h 7 min
Bit rate : 6 594 b/s
Count of elements : 1110
Stream size : 6.03 MiB (0%)
Language : English
Default : No
Forced : No

Menu
00:00:00.000 : en:(01)00:00:00:000
00:03:55.401 : en:(02)00:03:55:401
00:07:33.119 : en:(03)00:07:33:119
00:10:19.952 : en:(04)00:10:19:952
00:14:44.383 : en:(05)00:14:44:383
00:17:58.744 : en:(06)00:17:58:744
00:23:33.245 : en:(07)00:23:33:245
00:30:06.304 : en:(08)00:30:06:304
00:35:35.633 : en:(09)00:35:35:633
00:39:34.205 : en:(10)00:39:34:205
00:42:58.909 : en:(11)00:42:58:909
00:46:43.300 : en:(12)00:46:43:300
00:49:02.606 : en:(13)00:49:02:606
00:51:53.610 : en:(14)00:51:53:610
00:58:00.643 : en:(15)00:58:00:643
01:00:19.115 : en:(16)01:00:19:115
01:02:29.746 : en:(17)01:02:29:746
01:08:00.910 : en:(18)01:08:00:910
01:10:29.225 : en:(19)01:10:29:225
01:14:33.802 : en:(20)01:14:33:802
01:18:23.365 : en:(21)01:18:23:365
01:23:08.984 : en:(22)01:23:08:984
01:25:55.817 : en:(23)01:25:55:817
01:29:13.348 : en:(24)01:29:13:348
01:31:51.672 : en:(25)01:31:51:672
01:36:51.472 : en:(26)01:36:51:472
01:41:55.275 : en:(27)01:41:55:275
01:44:53.120 : en:(28)01:44:53:120
01:48:06.646 : en:(29)01:48:06:646
01:51:30.850 : en:(30)01:51:30:850
01:55:05.899 : en:(31)01:55:05:899
01:57:31.210 : en:(32)01:57:31:210
02:00:12.371 : en:(33)02:00:12:371
02:09:15.664 : en:(34)02:09:15:664





The Matrix Revolutions (2003)


The Matrix Revolutions (2003)


The Matrix Revolutions (2003)


The Matrix Revolutions (2003)


The Matrix Revolutions (2003)