Tags
Language
Tags

The Other End of the Line (2008)

Posted By: Tavaz
1080p (FullHD) / BDRip IMDb
The Other End of the Line (2008)

The Other End of the Line (2008)
BDRip | MKV | 1920x1080 | English | H264 @ 5760 kbps | AC-3 @ 448 kbps | 1 h 41 min | 4.38 GiB
Subtitles: English
Genre: Comedy, Romance

An employee at an Indian call-center travels to San Francisco to be with a guy she falls for over the phone

bcad8ea00102ab29e936daa7279250ea.mkv (4.4 GB)



General
Complete name : ./bcad8ea00102ab29e936daa7279250ea.mkv
Format : Matroska
Format version : Version 4 / Version 2
File size : 4.38 GiB
Duration : 1 h 41 min
Overall bit rate : 6 205 kb/s
Encoded date : UTC 2020-01-22 04:23:11 / UTC 2020-01-21T13:57:32Z
Writing application : mkvmerge v38.0.0 ('The Silent Type') 64-bit
Writing library : libebml v1.3.9 + libmatroska v1.5.2 / Lavf57.7.2

Video
ID : 1
Format : AVC
Format/Info : Advanced Video Codec
Format profile : High@L4
Format settings : CABAC / 4 Ref Frames
Format settings, CABAC : Yes
Format settings, RefFrames : 4 frames
Codec ID : V_MPEG4/ISO/AVC
Duration : 1 h 41 min
Bit rate : 5 760 kb/s
Width : 1 920 pixels
Height : 1 080 pixels
Display aspect ratio : 16:9
Frame rate mode : Constant
Frame rate : 25.000 FPS
Color space : YUV
Chroma subsampling : 4:2:0
Bit depth : 8 bits
Scan type : Progressive
Bits/(Pixel*Frame) : 0.111
Stream size : 3.98 GiB (91%)
Writing library : x264 core 155 r2901 7d0ff22
Encoding settings : cabac=1 / ref=4 / deblock=1:-3:-3 / analyse=0x3:0x133 / me=umh / subme=9 / psy=1 / psy_rd=1.10:0.25 / mixed_ref=1 / me_range=32 / chroma_me=1 / trellis=2 / 8x8dct=1 / cqm=0 / deadzone=6,6 / fast_pskip=1 / chroma_qp_offset=-4 / threads=34 / lookahead_threads=3 / sliced_threads=0 / nr=0 / decimate=1 / interlaced=0 / bluray_compat=0 / constrained_intra=0 / bframes=6 / b_pyramid=2 / b_adapt=2 / b_bias=0 / direct=3 / weightb=1 / open_gop=0 / weightp=2 / keyint=250 / keyint_min=25 / scenecut=40 / intra_refresh=0 / rc_lookahead=40 / rc=2pass / mbtree=1 / bitrate=5760 / ratetol=1.0 / qcomp=0.60 / qpmin=0 / qpmax=69 / qpstep=4 / cplxblur=20.0 / qblur=0.5 / vbv_maxrate=20000 / vbv_bufsize=25000 / nal_hrd=none / filler=0 / ip_ratio=1.40 / aq=1:1.00
Default : Yes
Forced : No
Color range : Limited
Color primaries : BT.709
Transfer characteristics : BT.709
Matrix coefficients : BT.709
Statistics Tags Issue : mkvmerge v38.0.0 ('The Silent Type') 64-bit 2020-01-22 04:23:11 / mkvmerge v38.0.0 ('The Silent Type') 64-bit 2020-01-22 04:23:11 / UTC 2020-01-21T13:57:32Z
FromStats_BitRate : 5754933
FromStats_Duration : 01:41:06.000000000
FromStats_FrameCount : 151650
FromStats_StreamSize : 4363678386

Audio
ID : 2
Format : AC-3
Format/Info : Audio Coding 3
Format settings, Endianness : Big
Codec ID : A_AC3
Duration : 1 h 41 min
Bit rate mode : Constant
Bit rate : 448 kb/s
Channel(s) : 6 channels
Channel positions : Front: L C R, Side: L R, LFE
Sampling rate : 48.0 kHz
Frame rate : 31.250 FPS (1536 SPF)
Bit depth : 16 bits
Compression mode : Lossy
Stream size : 324 MiB (7%)
Title : Surround
Language : English
Service kind : Complete Main
Default : Yes
Forced : No
Statistics Tags Issue : mkvmerge v38.0.0 ('The Silent Type') 64-bit 2020-01-22 04:23:11 / mkvmerge v38.0.0 ('The Silent Type') 64-bit 2020-01-22 04:23:11 / UTC 2020-01-21T13:57:32Z
FromStats_BitRate : 448000
FromStats_Duration : 01:41:05.984000000
FromStats_FrameCount : 189562
FromStats_StreamSize : 339695104

Text
ID : 3
Format : UTF-8
Codec ID : S_TEXT/UTF8
Codec ID/Info : UTF-8 Plain Text
Language : English
Default : Yes
Forced : No
Statistics Tags Issue : mkvmerge v38.0.0 ('The Silent Type') 64-bit 2020-01-22 04:23:11 / mkvmerge v38.0.0 ('The Silent Type') 64-bit 2020-01-22 04:23:11 / UTC 2020-01-21T13:57:32Z
FromStats_BitRate : 86
FromStats_Duration : 01:39:24.785000000
FromStats_FrameCount : 1667
FromStats_StreamSize : 64842

Menu
00:00:00.000 : :Chapter 1
00:07:07.080 : :Chapter 2
00:13:44.680 : :Chapter 3
00:20:36.560 : :Chapter 4
00:26:59.560 : :Chapter 5
00:34:18.840 : :Chapter 6
00:40:40.200 : :Chapter 7
00:46:43.760 : :Chapter 8
00:53:03.040 : :Chapter 9
00:58:53.600 : :Chapter 10
01:04:21.960 : :Chapter 11
01:12:03.800 : :Chapter 12
01:18:24.720 : :Chapter 13
01:23:42.760 : :Chapter 14
01:32:02.080 : :Chapter 15
01:36:52.720 : :Chapter 16





The Other End of the Line (2008)


The Other End of the Line (2008)


The Other End of the Line (2008)


The Other End of the Line (2008)


The Other End of the Line (2008)