Leslie Iwerks Productions - The Pixar Story (2007) [Repost]

Posted By: Tutorial
Leslie Iwerks Productions - The Pixar Story (2007) [Repost]

Leslie Iwerks Productions - The Pixar Story (2007)
WEB-DL | 1280 x 720 | .MP4/AVC @ 2585 Kbps | 1h 28mn | English AAC 160 Kbps, 2 channels | 1.70 GB
Genre: Documentary

Famed cartoonist Ub Iwerks's granddaughter Leslie turns the camera lens on the artists and storytellers behind some of the most widely hailed animated films of the modern era in the in-depth documentary The Pixar Story. Featuring such key members as John Lasseter, Steve Jobs, and George Lucas, the doc tells the story of the company's humble roots all the way to being one of the biggest power players in Hollywood. Featuring unseen footage of early output from the studio, as well as a full overview of its many box-office successes and technological breakthroughs, Iwerks's film celebrates the artistic spirit that has pushed the boundaries of what animation can deliver, while staying true to the ideals that its parent company Disney once held so dear..
More info: IMDB

General
Complete name : The.Pixar.Story.2007.mp4
Format : MPEG-4
Format profile : Base Media
Codec ID : isom
File size : 1.70 GiB
Duration : 1h 28mn
Overall bit rate mode : Variable
Overall bit rate : 2 749 Kbps
Encoded date : UTC 2013-03-20 21:26:46
Tagged date : UTC 2013-03-20 21:26:46

Video
ID : 1
Format : AVC
Format/Info : Advanced Video Codec
Format profile : High@L4.0
Format settings, CABAC : Yes
Format settings, ReFrames : 7 frames
Codec ID : avc1
Codec ID/Info : Advanced Video Coding
Duration : 1h 28mn
Bit rate : 2 585 Kbps
Maximum bit rate : 20.2 Mbps
Width : 1 280 pixels
Height : 720 pixels
Display aspect ratio : 16:9
Frame rate mode : Constant
Frame rate : 23.976 fps
Color space : YUV
Chroma subsampling : 4:2:0
Bit depth : 8 bits
Scan type : Progressive
Bits/(Pixel*Frame) : 0.117
Stream size : 1.60 GiB (94%)
Writing library : x264 core 130
Encoding settings : cabac=1 / ref=7 / deblock=1:0:0 / analyse=0x3:0x113 / me=umh / subme=10 / psy=1 / psy_rd=2.00:1.00 / mixed_ref=1 / me_range=24 / chroma_me=1 / trellis=2 / 8x8dct=1 / cqm=0 / deadzone=21,11 / fast_pskip=1 / chroma_qp_offset=-4 / threads=3 / lookahead_threads=1 / sliced_threads=0 / nr=0 / decimate=1 / interlaced=0 / bluray_compat=0 / constrained_intra=0 / bframes=9 / b_pyramid=2 / b_adapt=2 / b_bias=0 / direct=1 / weightb=1 / open_gop=0 / weightp=2 / keyint=240 / keyint_min=24 / scenecut=40 / intra_refresh=0 / rc_lookahead=60 / rc=crf / mbtree=1 / crf=21.0 / qcomp=0.60 / qpmin=0 / qpmax=69 / qpstep=4 / ip_ratio=1.40 / aq=1:1.00
Tagged date : UTC 2013-03-20 21:31:07
Color primaries : BT.709-5, BT.1361, IEC 61966-2-4, SMPTE RP177
Transfer characteristics : BT.709-5, BT.1361
Matrix coefficients : BT.709-5, BT.1361, IEC 61966-2-4 709, SMPTE RP177

Audio
ID : 2
Format : AAC
Format/Info : Advanced Audio Codec
Format profile : LC
Codec ID : 40
Duration : 1h 28mn
Bit rate mode : Variable
Bit rate : 160 Kbps
Maximum bit rate : 198 Kbps
Channel(s) : 2 channels
Channel positions : Front: L R
Sampling rate : 48.0 KHz
Compression mode : Lossy
Stream size : 101 MiB (6%)
Encoded date : UTC 2013-03-20 21:30:28
Tagged date : UTC 2013-03-20 21:31:07
Screenshots

Leslie Iwerks Productions - The Pixar Story (2007) [Repost]

Leslie Iwerks Productions - The Pixar Story (2007) [Repost]

Leslie Iwerks Productions - The Pixar Story (2007) [Repost]

Leslie Iwerks Productions - The Pixar Story (2007) [Repost]

Leslie Iwerks Productions - The Pixar Story (2007) [Repost]

Welcome to my blog - daily update!

Leslie Iwerks Productions - The Pixar Story (2007) [Repost]