The Scorpion King: Rise of a Warrior (2008)

Posted By: Tavaz
720p (HD) / BDRip IMDb
The Scorpion King: Rise of a Warrior (2008)

The Scorpion King: Rise of a Warrior (2008)
BRRip | MKV | 1280x720 | English | H264 @ 1984 kbps | AC-3 @ 448 kbps | 1 h 48 min | 1.85 GiB
Subtitles: English
Genre: Action, Adventure, Fantasy

The heroic tale of young Mathayus and his relentless quest for justice against an evil and powerful villain, King Sargon. Mathayus faces heart-stopping tribulations during his adventurous, odds-defying trajectory toward his ultimate destiny: becoming the formidable warrior king of an ancient desert empire.

The.Scorpion.King.2.2008.720p.BRRip.x264-x0r.mkv (1.9 GB)



General
Unique ID : 84757817179733754032981050540119983388 (0x3FC3C30628CDB300175E28E7CB4E851C)
Complete name : ./The.Scorpion.King.2.2008.720p.BRRip.x264-x0r.mkv
Format : Matroska
Format version : Version 2
File size : 1.85 GiB
Duration : 1 h 48 min
Overall bit rate : 2 432 kb/s
Movie name : The.Scorpion.King.2.2008.720p.BRRip.x264-x0r
Encoded date : UTC 2012-02-12 18:48:26
Writing application : mkvmerge v2.9.7 ('Tenderness') built on Jul 5 2009 13:26:28
Writing library : libebml v0.7.8 + libmatroska v0.8.1

Video
ID : 1
Format : AVC
Format/Info : Advanced Video Codec
Format profile : High@L4.1
Format settings : CABAC / 8 Ref Frames
Format settings, CABAC : Yes
Format settings, RefFrames : 8 frames
Codec ID : V_MPEG4/ISO/AVC
Duration : 1 h 48 min
Bit rate : 1 984 kb/s
Width : 1 280 pixels
Height : 720 pixels
Display aspect ratio : 16:9
Frame rate mode : Constant
Frame rate : 23.976 FPS
Color space : YUV
Chroma subsampling : 4:2:0
Bit depth : 8 bits
Scan type : Progressive
Bits/(Pixel*Frame) : 0.090
Stream size : 1.47 GiB (80%)
Writing library : x264 core 119
Encoding settings : cabac=1 / ref=8 / deblock=1:-1:-2 / analyse=0x3:0x113 / me=umh / subme=9 / psy=1 / psy_rd=1.00:0.00 / mixed_ref=1 / me_range=48 / chroma_me=1 / trellis=1 / 8x8dct=1 / cqm=0 / deadzone=21,11 / fast_pskip=0 / chroma_qp_offset=-2 / threads=6 / sliced_threads=0 / nr=0 / decimate=1 / interlaced=0 / bluray_compat=0 / constrained_intra=0 / bframes=4 / b_pyramid=2 / b_adapt=2 / b_bias=0 / direct=3 / weightb=1 / open_gop=0 / weightp=1 / keyint=240 / keyint_min=24 / scenecut=40 / intra_refresh=0 / rc_lookahead=120 / rc=2pass / mbtree=1 / bitrate=1984 / ratetol=1.0 / qcomp=0.60 / qpmin=3 / qpmax=69 / qpstep=4 / cplxblur=20.0 / qblur=0.5 / ip_ratio=1.40 / aq=1:1.00
Language : English
Default : Yes
Forced : No
Color range : Limited
Color primaries : BT.709
Transfer characteristics : BT.709
Matrix coefficients : BT.709

Audio
ID : 2
Format : AC-3
Format/Info : Audio Coding 3
Format settings, Endianness : Big
Codec ID : A_AC3
Duration : 1 h 48 min
Bit rate mode : Constant
Bit rate : 448 kb/s
Channel(s) : 6 channels
Channel positions : Front: L C R, Side: L R, LFE
Sampling rate : 48.0 kHz
Frame rate : 31.250 FPS (1536 SPF)
Bit depth : 16 bits
Compression mode : Lossy
Stream size : 349 MiB (18%)
Language : English
Service kind : Complete Main
Default : Yes
Forced : No

Text
ID : 3
Format : UTF-8
Codec ID : S_TEXT/UTF8
Codec ID/Info : UTF-8 Plain Text
Language : English
Default : Yes
Forced : No





The Scorpion King: Rise of a Warrior (2008)


The Scorpion King: Rise of a Warrior (2008)


The Scorpion King: Rise of a Warrior (2008)


The Scorpion King: Rise of a Warrior (2008)


The Scorpion King: Rise of a Warrior (2008)