The Secret Daughter S02E06

Posted By: Tavaz
SD / WEB-DL IMDb
The Secret Daughter S02E06

The Secret Daughter S02E06
WEB-DL | MOV | 640x360 | H264 @ 512 kbps | AAC @ 96 kbps | 42 min 36 s | 186 MiB
Genre: Drama

Finding herself in hot water with the local hood, Billie pretends to be the secret daughter of Jack Norton in order to escape town, which suddenly lands her in the middle of a grieving family.

The.Secret.Daughter.S02E06.WEB-DL.x264-MFO.mp4 (186.0 MB)



General
Complete name : ./The.Secret.Daughter.S02E06.WEB-DL.x264-MFO.mp4
Format : MPEG-4
Format profile : Base Media
Codec ID : isom (isom/iso2/avc1/mp41)
File size : 186 MiB
Duration : 42 min 36 s
Overall bit rate : 610 kb/s
Movie name : The Secret Daughter S01E06
Writing application : Lavf57.83.100
Comment : {name}

Video
ID : 1
Format : AVC
Format/Info : Advanced Video Codec
Format profile : High@L3.1
Format settings : CABAC / 5 Ref Frames
Format settings, CABAC : Yes
Format settings, RefFrames : 5 frames
Codec ID : avc1
Codec ID/Info : Advanced Video Coding
Duration : 42 min 36 s
Bit rate : 512 kb/s
Width : 640 pixels
Height : 360 pixels
Display aspect ratio : 16:9
Frame rate mode : Constant
Frame rate : 25.000 FPS
Color space : YUV
Chroma subsampling : 4:2:0
Bit depth : 8 bits
Scan type : Progressive
Bits/(Pixel*Frame) : 0.089
Stream size : 155 MiB (84%)
Writing library : x264 core 148 r2643 5c65704
Encoding settings : cabac=1 / ref=5 / deblock=1:0:0 / analyse=0x3:0x113 / me=hex / subme=7 / psy=1 / psy_rd=1.00:0.00 / mixed_ref=1 / me_range=16 / chroma_me=1 / trellis=1 / 8x8dct=1 / cqm=0 / deadzone=21,11 / fast_pskip=1 / chroma_qp_offset=-2 / threads=5 / lookahead_threads=5 / sliced_threads=1 / slices=5 / nr=0 / decimate=1 / interlaced=0 / bluray_compat=0 / constrained_intra=0 / bframes=0 / weightp=2 / keyint=250 / keyint_min=25 / scenecut=40 / intra_refresh=0 / rc=abr / mbtree=0 / bitrate=512 / ratetol=1.0 / qcomp=0.60 / qpmin=0 / qpmax=69 / qpstep=4 / ip_ratio=1.40 / aq=1:1.00

Audio
ID : 2
Format : AAC
Format/Info : Advanced Audio Codec
Format profile : LC
Codec ID : mp4a-40-2
Duration : 42 min 36 s
Bit rate mode : Constant
Bit rate : 96.0 kb/s
Channel(s) : 2 channels
Channel positions : Front: L R
Sampling rate : 48.0 kHz
Frame rate : 46.875 FPS (1024 SPF)
Compression mode : Lossy
Stream size : 29.2 MiB (16%)
Default : Yes
Alternate group : 1





The Secret Daughter S02E06


The Secret Daughter S02E06


The Secret Daughter S02E06


The Secret Daughter S02E06


The Secret Daughter S02E06

All episodes