The Seven Year Itch (1955)

Posted By: Tavaz
SD / BDRip IMDb
The Seven Year Itch (1955)

The Seven Year Itch (1955)
BDRip | MKV | 1024x402 | English / English / English | H264 @ 3554 kbps | AC-3 @ 448 kbps | 1 h 44 min | 2.99 GiB
Subtitles: Indonesian, Spanish, Chinese, German, Romanian, English, French, Dutch, Polish, Italian
Genre: Comedy, Drama, Romance

With his family away for their annual summer holiday, Richard Sherman decides he has the opportunity to live a bachelor's life. The beautiful but ditzy blonde from the apartment above catches his eye and they soon start spending time together - maybe a little too much time!

d7cf5cdd7b8d4bd3bd1367827bbc64b0.mkv (3.0 GB)



General
Complete name : ./d7cf5cdd7b8d4bd3bd1367827bbc64b0.mkv
Format : Matroska
Format version : Version 4 / Version 2
File size : 2.99 GiB
Duration : 1 h 44 min
Overall bit rate : 4 106 kb/s
Encoded date : UTC 2019-04-15 10:10:00
Writing application : mkvmerge v26.0.0 ('In The Game') 64-bit
Writing library : libebml v1.3.6 + libmatroska v1.4.9

Video
ID : 14
Format : AVC
Format/Info : Advanced Video Codec
Format profile : High@L4.1
Format settings : CABAC / 16 Ref Frames
Format settings, CABAC : Yes
Format settings, RefFrames : 16 frames
Codec ID : V_MPEG4/ISO/AVC
Duration : 1 h 44 min
Bit rate : 3 554 kb/s
Width : 1 024 pixels
Height : 402 pixels
Display aspect ratio : 2.547
Frame rate mode : Constant
Frame rate : 23.976 (24000/1001) FPS
Color space : YUV
Chroma subsampling : 4:2:0
Bit depth : 8 bits
Scan type : Progressive
Bits/(Pixel*Frame) : 0.360
Stream size : 2.59 GiB (87%)
Writing library : x264 core 157 r2932 303c484
Encoding settings : cabac=1 / ref=16 / deblock=1:-3:-3 / analyse=0x3:0x133 / me=umh / subme=11 / psy=1 / psy_rd=0.98:0.00 / mixed_ref=1 / me_range=32 / chroma_me=1 / trellis=2 / 8x8dct=1 / cqm=0 / deadzone=21,11 / fast_pskip=0 / chroma_qp_offset=-2 / threads=12 / lookahead_threads=2 / sliced_threads=0 / nr=0 / decimate=0 / interlaced=0 / bluray_compat=0 / constrained_intra=0 / bframes=9 / b_pyramid=2 / b_adapt=2 / b_bias=0 / direct=3 / weightb=1 / open_gop=0 / weightp=2 / keyint=250 / keyint_min=23 / scenecut=40 / intra_refresh=0 / rc_lookahead=250 / rc=crf / mbtree=1 / crf=15.6 / qcomp=0.60 / qpmin=0 / qpmax=69 / qpstep=4 / ip_ratio=1.40 / aq=3:0.60
Language : English
Default : Yes
Forced : No
Color range : Limited
Color primaries : BT.709
Matrix coefficients : BT.709

Audio #1
ID : 11
Format : AC-3
Format/Info : Audio Coding 3
Format settings, Endianness : Big
Codec ID : A_AC3
Duration : 1 h 44 min
Bit rate mode : Constant
Bit rate : 448 kb/s
Channel(s) : 6 channels
Channel positions : Front: L C R, Side: L R, LFE
Sampling rate : 48.0 kHz
Frame rate : 31.250 FPS (1536 SPF)
Bit depth : 16 bits
Compression mode : Lossy
Stream size : 335 MiB (11%)
Language : English
Service kind : Complete Main
Default : Yes
Forced : No

Audio #2
ID : 12
Format : AAC
Format/Info : Advanced Audio Codec
Format profile : LC
Codec ID : A_AAC-2
Duration : 1 h 44 min
Bit rate : 78.0 kb/s
Channel(s) : 2 channels
Channel positions : Front: L R
Sampling rate : 48.0 kHz
Frame rate : 46.875 FPS (1024 SPF)
Compression mode : Lossy
Stream size : 58.3 MiB (2%)
Title : Commentary by Author Kevin Lally (Bill Wilder Biographer)
Language : English
Default : No
Forced : No

Audio #3
ID : 13
Format : AAC
Format/Info : Advanced Audio Codec
Format profile : LC
Codec ID : A_AAC-2
Duration : 1 h 44 min
Bit rate : 21.8 kb/s
Channel(s) : 2 channels
Channel positions : Front: L R
Sampling rate : 48.0 kHz
Frame rate : 46.875 FPS (1024 SPF)
Compression mode : Lossy
Stream size : 16.2 MiB (1%)
Title : Commentary by Publisher Hugh Hefner and other entertainment experts
Language : English
Default : No
Forced : No

Text #1
ID : 1
Format : UTF-8
Codec ID : S_TEXT/UTF8
Codec ID/Info : UTF-8 Plain Text
Duration : 1 h 41 min
Bit rate : 69 b/s
Count of elements : 1233
Stream size : 51.3 KiB (0%)
Language : English
Default : Yes
Forced : No

Text #2
ID : 2
Format : UTF-8
Codec ID : S_TEXT/UTF8
Codec ID/Info : UTF-8 Plain Text
Duration : 1 h 41 min
Bit rate : 67 b/s
Count of elements : 2030
Stream size : 49.7 KiB (0%)
Language : Chinese
Default : No
Forced : No

Text #3
ID : 3
Format : UTF-8
Codec ID : S_TEXT/UTF8
Codec ID/Info : UTF-8 Plain Text
Duration : 1 h 41 min
Bit rate : 60 b/s
Count of elements : 993
Stream size : 45.1 KiB (0%)
Language : Dutch
Default : No
Forced : No

Text #4
ID : 4
Format : UTF-8
Codec ID : S_TEXT/UTF8
Codec ID/Info : UTF-8 Plain Text
Duration : 1 h 41 min
Bit rate : 64 b/s
Count of elements : 1110
Stream size : 48.3 KiB (0%)
Language : French
Default : No
Forced : No

Text #5
ID : 5
Format : UTF-8
Codec ID : S_TEXT/UTF8
Codec ID/Info : UTF-8 Plain Text
Duration : 1 h 41 min
Bit rate : 74 b/s
Count of elements : 1239
Stream size : 55.5 KiB (0%)
Language : German
Default : No
Forced : No

Text #6
ID : 6
Format : UTF-8
Codec ID : S_TEXT/UTF8
Codec ID/Info : UTF-8 Plain Text
Duration : 1 h 41 min
Bit rate : 75 b/s
Count of elements : 1237
Stream size : 55.9 KiB (0%)
Language : Indonesian
Default : No
Forced : No

Text #7
ID : 7
Format : ASS
Codec ID : S_TEXT/ASS
Codec ID/Info : Advanced Sub Station Alpha
Duration : 1 h 41 min
Bit rate : 111 b/s
Count of elements : 1236
Compression mode : Lossless
Stream size : 83.0 KiB (0%)
Language : Italian
Default : No
Forced : No

Text #8
ID : 8
Format : UTF-8
Codec ID : S_TEXT/UTF8
Codec ID/Info : UTF-8 Plain Text
Duration : 1 h 41 min
Bit rate : 66 b/s
Count of elements : 1236
Stream size : 49.3 KiB (0%)
Language : Polish
Default : No
Forced : No

Text #9
ID : 9
Format : UTF-8
Codec ID : S_TEXT/UTF8
Codec ID/Info : UTF-8 Plain Text
Duration : 1 h 41 min
Bit rate : 78 b/s
Count of elements : 1325
Stream size : 58.1 KiB (0%)
Language : Romanian
Default : No
Forced : No

Text #10
ID : 10
Format : UTF-8
Codec ID : S_TEXT/UTF8
Codec ID/Info : UTF-8 Plain Text
Duration : 1 h 41 min
Bit rate : 63 b/s
Count of elements : 1237
Stream size : 47.1 KiB (0%)
Language : Spanish
Default : No
Forced : No

Menu
00:00:00.000 : en:Main Titles
00:02:22.642 : en:The Summer Vacation
00:05:29.162 : en:Mr. Sherman
00:10:55.488 : en:The Summer Renter
00:14:01.841 : en:Mr. Sherman's Imagination
00:23:27.031 : en:A Crash Landing
00:28:25.704 : en:Rachmaninoff Reverie
00:31:24.674 : en:Mr. Krihulik
00:33:31.635 : en:The Tomato
00:44:21.868 : en:The Champagne
00:51:52.109 : en:The Piano
00:55:25.322 : en:At The Office
00:58:25.919 : en:The Itch
01:05:02.190 : en:Worst-case Scenario
01:10:06.869 : en:Abstention
01:13:58.476 : en:At The Movies
01:16:28.584 : en:Air Conditioned
01:25:13.317 : en:The Paddle
01:31:15.679 : en:Guilt
01:35:37.565 : en:Another Opinion
01:38:53.136 : en:Tom Mackenzie
01:42:39.528 : en:The 8:47 Train





The Seven Year Itch (1955)


The Seven Year Itch (1955)


The Seven Year Itch (1955)


The Seven Year Itch (1955)


The Seven Year Itch (1955)