The Shape of Water (2017) 4K UHD HDR

Posted By: Tavaz
2160p (4k UHD) / BDRip IMDb
The Shape of Water (2017) 4K UHD HDR

The Shape of Water (2017) 4K UHD HDR
BDRip | MKV | 3840x2160 | English | H265 @ 5119 kbps | AC-3 @ 640 kbps | 2 h 3 min | 5.06 GiB
Subtitles: Swedish, Portuguese, Spanish, Finnish, Chinese, Danish, Czech, English, Japanese, French, German, Polish, Dutch, Norwegian, Italian
Genre: Drama, Fantasy, Romance

An other-worldly story, set against the backdrop of Cold War era America circa 1962, where a mute janitor working at a lab falls in love with an amphibious man being held captive there and devises a plan to help him escape.

2254189b3fd94efe88045ad6f76f159b.mkv (5.1 GB)



General
Complete name : ./2254189b3fd94efe88045ad6f76f159b.mkv
Format : Matroska
Format version : Version 4 / Version 2
File size : 5.06 GiB
Duration : 2 h 3 min
Overall bit rate : 5 875 kb/s
Encoded date : UTC 2018-03-08 23:09:43
Writing application : mkvmerge v21.0.0 ('Tardigrades Will Inherit The Earth') 64-bit
Writing library : libebml v1.3.5 + libmatroska v1.4.8
Cover : Yes
Attachments : cover.jpg

Video
ID : 1
Format : HEVC
Format/Info : High Efficiency Video Coding
Format profile : Main 10@L5@Main
Codec ID : V_MPEGH/ISO/HEVC
Duration : 2 h 3 min
Bit rate : 5 119 kb/s
Width : 3 840 pixels
Height : 2 160 pixels
Display aspect ratio : 16:9
Frame rate mode : Constant
Frame rate : 23.976 (24000/1001) FPS
Color space : YUV
Chroma subsampling : 4:2:0
Bit depth : 10 bits
Bits/(Pixel*Frame) : 0.026
Stream size : 4.41 GiB (87%)
Title : [SGJ5-LorD]
Language : English
Default : Yes
Forced : No
Color range : Limited
Color primaries : BT.2020
Transfer characteristics : PQ
Matrix coefficients : BT.2020 non-constant

Audio
ID : 2
Format : AC-3
Format/Info : Audio Coding 3
Format settings, Endianness : Big
Codec ID : A_AC3
Duration : 2 h 3 min
Bit rate mode : Constant
Bit rate : 640 kb/s
Channel(s) : 6 channels
Channel positions : Front: L C R, Side: L R, LFE
Sampling rate : 48.0 kHz
Frame rate : 31.250 FPS (1536 SPF)
Bit depth : 16 bits
Compression mode : Lossy
Stream size : 565 MiB (11%)
Language : English
Service kind : Complete Main
Default : Yes
Forced : No

Text #1
ID : 3
Format : UTF-8
Codec ID : S_TEXT/UTF8
Codec ID/Info : UTF-8 Plain Text
Duration : 1 h 58 min
Bit rate : 45 b/s
Count of elements : 1297
Stream size : 39.5 KiB (0%)
Title : Brazilian
Language : Portuguese
Default : Yes
Forced : No

Text #2
ID : 4
Format : PGS
Muxing mode : zlib
Codec ID : S_HDMV/PGS
Codec ID/Info : Picture based subtitle format used on BDs/HD-DVDs
Duration : 1 h 47 min
Bit rate : 1 229 b/s
Count of elements : 338
Stream size : 968 KiB (0%)
Title : forced for foreign parts
Language : English
Default : No
Forced : No

Text #3
ID : 5
Format : PGS
Muxing mode : zlib
Codec ID : S_HDMV/PGS
Codec ID/Info : Picture based subtitle format used on BDs/HD-DVDs
Duration : 2 h 2 min
Bit rate : 21.7 kb/s
Count of elements : 3856
Stream size : 19.1 MiB (0%)
Title : SDH
Language : English
Default : No
Forced : No

Text #4
ID : 6
Format : PGS
Muxing mode : zlib
Codec ID : S_HDMV/PGS
Codec ID/Info : Picture based subtitle format used on BDs/HD-DVDs
Duration : 2 h 1 min
Bit rate : 20.7 kb/s
Count of elements : 2826
Stream size : 18.0 MiB (0%)
Title : Cantonese
Language : Chinese
Default : No
Forced : No

Text #5
ID : 7
Format : PGS
Muxing mode : zlib
Codec ID : S_HDMV/PGS
Codec ID/Info : Picture based subtitle format used on BDs/HD-DVDs
Duration : 2 h 1 min
Bit rate : 20.7 kb/s
Count of elements : 2794
Stream size : 18.0 MiB (0%)
Title : Traditional
Language : Chinese
Default : No
Forced : No

Text #6
ID : 8
Format : PGS
Muxing mode : zlib
Codec ID : S_HDMV/PGS
Codec ID/Info : Picture based subtitle format used on BDs/HD-DVDs
Duration : 2 h 1 min
Bit rate : 25.6 kb/s
Count of elements : 2790
Stream size : 22.3 MiB (0%)
Language : Czech
Default : No
Forced : No

Text #7
ID : 9
Format : PGS
Muxing mode : zlib
Codec ID : S_HDMV/PGS
Codec ID/Info : Picture based subtitle format used on BDs/HD-DVDs
Duration : 2 h 1 min
Bit rate : 25.6 kb/s
Count of elements : 1990
Stream size : 22.3 MiB (0%)
Language : Danish
Default : No
Forced : No

Text #8
ID : 10
Format : PGS
Muxing mode : zlib
Codec ID : S_HDMV/PGS
Codec ID/Info : Picture based subtitle format used on BDs/HD-DVDs
Duration : 2 h 1 min
Bit rate : 22.7 kb/s
Count of elements : 2298
Stream size : 19.7 MiB (0%)
Language : Dutch
Default : No
Forced : No

Text #9
ID : 11
Format : PGS
Muxing mode : zlib
Codec ID : S_HDMV/PGS
Codec ID/Info : Picture based subtitle format used on BDs/HD-DVDs
Duration : 2 h 1 min
Bit rate : 24.9 kb/s
Count of elements : 2766
Stream size : 21.6 MiB (0%)
Language : Finnish
Default : No
Forced : No

Text #10
ID : 12
Format : PGS
Muxing mode : zlib
Codec ID : S_HDMV/PGS
Codec ID/Info : Picture based subtitle format used on BDs/HD-DVDs
Duration : 2 h 1 min
Bit rate : 13.6 kb/s
Count of elements : 2476
Stream size : 11.8 MiB (0%)
Language : French
Default : No
Forced : No

Text #11
ID : 13
Format : PGS
Muxing mode : zlib
Codec ID : S_HDMV/PGS
Codec ID/Info : Picture based subtitle format used on BDs/HD-DVDs
Duration : 2 h 1 min
Bit rate : 16.3 kb/s
Count of elements : 2568
Stream size : 14.1 MiB (0%)
Language : German
Default : No
Forced : No

Text #12
ID : 14
Format : PGS
Muxing mode : zlib
Codec ID : S_HDMV/PGS
Codec ID/Info : Picture based subtitle format used on BDs/HD-DVDs
Duration : 2 h 1 min
Bit rate : 15.2 kb/s
Count of elements : 2752
Stream size : 13.3 MiB (0%)
Language : Italian
Default : No
Forced : No

Text #13
ID : 15
Format : PGS
Muxing mode : zlib
Codec ID : S_HDMV/PGS
Codec ID/Info : Picture based subtitle format used on BDs/HD-DVDs
Duration : 2 h 1 min
Bit rate : 16.7 kb/s
Count of elements : 2254
Stream size : 14.5 MiB (0%)
Language : Japanese
Default : No
Forced : No

Text #14
ID : 16
Format : PGS
Muxing mode : zlib
Codec ID : S_HDMV/PGS
Codec ID/Info : Picture based subtitle format used on BDs/HD-DVDs
Duration : 2 h 1 min
Bit rate : 26.5 kb/s
Count of elements : 2726
Stream size : 23.0 MiB (0%)
Language : Norwegian
Default : No
Forced : No

Text #15
ID : 17
Format : PGS
Muxing mode : zlib
Codec ID : S_HDMV/PGS
Codec ID/Info : Picture based subtitle format used on BDs/HD-DVDs
Duration : 2 h 1 min
Bit rate : 15.8 kb/s
Count of elements : 2759
Stream size : 13.7 MiB (0%)
Title : Castilian
Language : Spanish
Default : No
Forced : No

Text #16
ID : 18
Format : PGS
Muxing mode : zlib
Codec ID : S_HDMV/PGS
Codec ID/Info : Picture based subtitle format used on BDs/HD-DVDs
Duration : 2 h 1 min
Bit rate : 14.7 kb/s
Count of elements : 2664
Stream size : 12.8 MiB (0%)
Title : Latin American
Language : Spanish
Default : No
Forced : No

Text #17
ID : 19
Format : PGS
Muxing mode : zlib
Codec ID : S_HDMV/PGS
Codec ID/Info : Picture based subtitle format used on BDs/HD-DVDs
Duration : 2 h 1 min
Bit rate : 25.3 kb/s
Count of elements : 2738
Stream size : 22.0 MiB (0%)
Language : Swedish
Default : No
Forced : No

Text #18
ID : 20
Format : PGS
Muxing mode : zlib
Codec ID : S_HDMV/PGS
Codec ID/Info : Picture based subtitle format used on BDs/HD-DVDs
Duration : 2 h 1 min
Bit rate : 20.7 kb/s
Count of elements : 2548
Stream size : 18.0 MiB (0%)
Language : Polish
Default : No
Forced : No

Menu
00:00:00.000 : en:Chapter 1
00:06:24.467 : en:Chapter 2
00:12:54.774 : en:Chapter 3
00:18:32.987 : en:Chapter 4
00:23:45.591 : en:Chapter 5
00:29:39.653 : en:Chapter 6
00:35:29.836 : en:Chapter 7
00:39:30.535 : en:Chapter 8
00:42:42.435 : en:Chapter 9
00:48:34.036 : en:Chapter 10
00:52:26.935 : en:Chapter 11
00:57:30.197 : en:Chapter 12
01:01:52.542 : en:Chapter 13
01:07:35.551 : en:Chapter 14
01:12:13.496 : en:Chapter 15
01:17:50.791 : en:Chapter 16
01:21:17.122 : en:Chapter 17
01:26:05.911 : en:Chapter 18
01:32:48.480 : en:Chapter 19
01:37:18.750 : en:Chapter 20
01:43:24.115 : en:Chapter 21
01:46:06.610 : en:Chapter 22
01:50:31.667 : en:Chapter 23
01:58:34.858 : en:Chapter 24





The Shape of Water (2017) 4K UHD HDR


The Shape of Water (2017) 4K UHD HDR


The Shape of Water (2017) 4K UHD HDR


The Shape of Water (2017) 4K UHD HDR


The Shape of Water (2017) 4K UHD HDR