Tags
Language
Tags

The Snowman (1982)

Posted By: Tavaz
1080p (FullHD) / WEB-DL IMDb
The Snowman (1982)

The Snowman (1982)
WEB-DL | MKV | 1912x1072 | English | H264 @ 5176 kbps | AAC @ 162 kbps | 25 min 38 s | 980 MiB
Genre: Action, Adventure, Animation, Fantasy, Family

A young boy makes a snowman one Christmas Eve, which comes to life at midnight and takes the boy on a magical adventure to the North Pole to meet Santa Claus.

KReu196esirVPyFqMYYwTUKk3j5hxSfXCfz.mkv (979.8 MB)



General
Unique ID : 70320931428423050073853694517315418683 (0x34E75199F6366F17D93880C3D10CBA3B)
Complete name : ./KReu196esirVPyFqMYYwTUKk3j5hxSfXCfz.mkv
Format : Matroska
Format version : Version 4 / Version 2
File size : 980 MiB
Duration : 25 min 38 s
Overall bit rate : 5 341 kb/s
Encoded date : UTC 2016-12-25 12:46:04
Writing application : mkvmerge v9.4.1 ('Black Rain') 64bit
Writing library : libebml v1.3.4 + libmatroska v1.4.5

Video
ID : 2
Format : AVC
Format/Info : Advanced Video Codec
Format profile : High@L4
Format settings : CABAC / 4 Ref Frames
Format settings, CABAC : Yes
Format settings, RefFrames : 4 frames
Codec ID : V_MPEG4/ISO/AVC
Duration : 25 min 38 s
Bit rate : 5 177 kb/s
Width : 1 912 pixels
Height : 1 072 pixels
Display aspect ratio : 16:9
Frame rate mode : Constant
Frame rate : 25.000 FPS
Color space : YUV
Chroma subsampling : 4:2:0
Bit depth : 8 bits
Scan type : Progressive
Bits/(Pixel*Frame) : 0.101
Stream size : 950 MiB (97%)
Language : English
Default : Yes
Forced : No
Color range : Limited
Color primaries : BT.709
Transfer characteristics : BT.709
Matrix coefficients : BT.709

Audio
ID : 1
Format : AAC
Format/Info : Advanced Audio Codec
Format profile : LC
Codec ID : A_AAC-2
Duration : 25 min 38 s
Bit rate : 162 kb/s
Channel(s) : 2 channels
Channel positions : Front: L R
Sampling rate : 48.0 kHz
Frame rate : 46.875 FPS (1024 SPF)
Compression mode : Lossy
Stream size : 29.7 MiB (3%)
Language : English
Default : Yes
Forced : No





The Snowman (1982)


The Snowman (1982)


The Snowman (1982)


The Snowman (1982)


The Snowman (1982)