The Messenger: The Story of Joan of Arc (1999)

Posted By: Tavaz
1080p (FullHD) / BDRip IMDb
The Messenger: The Story of Joan of Arc (1999)

The Messenger: The Story of Joan of Arc (1999)
MKV | 1920x1080 | English | H264 @ 5730 kbps | AC-3 @ 576 kbps | 2 h 38 min | 7.10 GiB
Subtitles: Dutch
Genre: Action, Adventure, Drama, History, War

In 1429 a teenage girl from a remote French village stood before her King with a message she claimed came from God; that she would defeat the world's greatest army and liberate her country from its political and religious turmoil. Following her mission to reclaim god's dimished kingdom - through her amazing victories until her violent and untimely death.

THE STORY OF JOAN OF ARC 1999 1080p.1.srt (88.0 KB)
THE STORY OF JOAN OF ARC 1999 1080p.srt (88.0 KB)
THE STORY OF JOAN OF ARC 1999 1080p.mkv (7.1 GB)



General
Unique ID : 134023368742576103352492432628315652403 (0x64D3F63FCAE86753C2A0D2B53A710133)
Complete name : ./THE STORY OF JOAN OF ARC 1999 1080p.mkv
Format : Matroska
Format version : Version 4 / Version 2
File size : 7.10 GiB
Duration : 2 h 38 min
Overall bit rate mode : Variable
Overall bit rate : 6 435 kb/s
Writing application : Lavf56.30.100
Writing library : Lavf56.30.100
LABEL : Chapter 16
Language : eng
TCHAPTER : 174311488

Video
ID : 1
Format : AVC
Format/Info : Advanced Video Codec
Format profile : High@L4.1
Format settings : CABAC / 1 Ref Frames
Format settings, CABAC : Yes
Format settings, RefFrames : 1 frame
Codec ID : V_MPEG4/ISO/AVC
Duration : 2 h 38 min
Bit rate mode : Variable
Bit rate : 5 731 kb/s
Maximum bit rate : 7 200 kb/s
Width : 1 920 pixels
Height : 1 080 pixels
Display aspect ratio : 16:9
Frame rate mode : Constant
Frame rate : 23.976 (24000/1001) FPS
Color space : YUV
Chroma subsampling : 4:2:0
Bit depth : 8 bits
Scan type : Progressive
Bits/(Pixel*Frame) : 0.115
Stream size : 6.32 GiB (89%)
Title : h264_qsync_hw 1920x1080 16/9
Default : Yes
Forced : No
Track/Position : 0

Audio
ID : 2
Format : AC-3
Format/Info : Audio Coding 3
Format settings, Endianness : Big
Codec ID : A_AC3
Duration : 2 h 38 min
Bit rate mode : Constant
Bit rate : 576 kb/s
Channel(s) : 6 channels
Channel positions : Front: L C R, Side: L R, LFE
Sampling rate : 48.0 kHz
Frame rate : 31.250 FPS (1536 SPF)
Bit depth : 16 bits
Compression mode : Lossy
Stream size : 651 MiB (9%)
Title : ac3 48000Hz 6Ch.
Language : English
Service kind : Complete Main
Default : Yes
Forced : No
Track/Position : 1

Text
ID : 3
Format : VobSub
Codec ID : S_VOBSUB
Codec ID/Info : Picture based subtitle format used on DVDs
Title : dvd_subtitle 1920x1080
Language : Dutch
Default : Yes
Forced : No
Track/Position : 2

Menu
00:00:00.000 : :Chapter 1
00:10:59.075 : :Chapter 2
00:21:01.550 : :Chapter 3
00:32:20.855 : :Chapter 4
00:38:35.271 : :Chapter 5
00:46:58.648 : :Chapter 6
00:56:49.155 : :Chapter 7
01:03:12.246 : :Chapter 8
01:12:24.547 : :Chapter 9
01:23:08.692 : :Chapter 10
01:37:11.783 : :Chapter 11
01:46:42.479 : :Chapter 12
01:56:54.006 : :Chapter 13
02:03:27.358 : :Chapter 14
02:12:21.725 : :Chapter 15
02:21:01.494 : :Chapter 16





The Messenger: The Story of Joan of Arc (1999)


The Messenger: The Story of Joan of Arc (1999)


The Messenger: The Story of Joan of Arc (1999)


The Messenger: The Story of Joan of Arc (1999)


The Messenger: The Story of Joan of Arc (1999)