The Thrill of It All (1963)

Posted By: Tavaz
1080p (FullHD) / HDTV IMDb
The Thrill of It All (1963)

The Thrill of It All (1963)
HDTV | MKV | 1912x1080 | English | H264 @ 10934 kbps | AC-3 @ 448 kbps | 1 h 47 min | 8.56 GiB
Subtitles: English
Genre: Comedy, Romance

The story of the film centres around urban housewife Beverly Boyer (Doris Day) and her husband, a successful gynaecologist and devoted family man, Gerald (James Garner). Beverly is offered the opportunity to star for a television commercial advertising soap. After a shaky start, she gets a contract for $80,000 per year to appear on the weekly TV commercials.

5bcedda0c2fc412b8e0d5e9a685d911c.mkv (8.6 GB)



General
Complete name : ./5bcedda0c2fc412b8e0d5e9a685d911c.mkv
Format : Matroska
Format version : Version 4 / Version 2
File size : 8.56 GiB
Duration : 1 h 47 min
Overall bit rate : 11.4 Mb/s
Encoded date : UTC 2018-01-21 07:09:09
Writing application : mkvmerge v9.4.0 ('Knurl') 64bit
Writing library : libebml v1.3.4 + libmatroska v1.4.5

Video
ID : 1
Format : AVC
Format/Info : Advanced Video Codec
Format profile : High@L4.1
Format settings : CABAC / 4 Ref Frames
Format settings, CABAC : Yes
Format settings, RefFrames : 4 frames
Codec ID : V_MPEG4/ISO/AVC
Duration : 1 h 47 min
Bit rate : 10.9 Mb/s
Width : 1 912 pixels
Height : 1 080 pixels
Display aspect ratio : 16:9
Frame rate mode : Constant
Frame rate : 23.976 (24000/1001) FPS
Color space : YUV
Chroma subsampling : 4:2:0
Bit depth : 8 bits
Scan type : Progressive
Bits/(Pixel*Frame) : 0.221
Stream size : 8.22 GiB (96%)
Writing library : x264 core 155 r2901 7d0ff22
Encoding settings : cabac=1 / ref=4 / deblock=1:0:0 / analyse=0x3:0x113 / me=hex / subme=8 / psy=1 / psy_rd=1.00:0.00 / mixed_ref=1 / me_range=16 / chroma_me=1 / trellis=2 / 8x8dct=1 / cqm=0 / deadzone=21,11 / fast_pskip=1 / chroma_qp_offset=-2 / threads=12 / lookahead_threads=2 / sliced_threads=0 / nr=0 / decimate=1 / interlaced=0 / bluray_compat=0 / constrained_intra=0 / bframes=3 / b_pyramid=2 / b_adapt=1 / b_bias=0 / direct=3 / weightb=1 / open_gop=0 / weightp=2 / keyint=250 / keyint_min=23 / scenecut=40 / intra_refresh=0 / rc_lookahead=50 / rc=crf / mbtree=1 / crf=18.0 / qcomp=0.60 / qpmin=0 / qpmax=69 / qpstep=4 / ip_ratio=1.40 / aq=1:1.00
Default : Yes
Forced : No

Audio
ID : 2
Format : AC-3
Format/Info : Audio Coding 3
Format settings, Endianness : Big
Codec ID : A_AC3
Duration : 1 h 47 min
Bit rate mode : Constant
Bit rate : 448 kb/s
Channel(s) : 6 channels
Channel positions : Front: L C R, Side: L R, LFE
Sampling rate : 48.0 kHz
Frame rate : 31.250 FPS (1536 SPF)
Bit depth : 16 bits
Compression mode : Lossy
Stream size : 345 MiB (4%)
Language : English
Service kind : Complete Main
Default : Yes
Forced : No

Text
ID : 3
Format : UTF-8
Codec ID : S_TEXT/UTF8
Codec ID/Info : UTF-8 Plain Text
Duration : 1 h 47 min
Bit rate : 93 b/s
Count of elements : 1546
Stream size : 73.5 KiB (0%)
Language : English
Default : No
Forced : No





The Thrill of It All (1963)


The Thrill of It All (1963)


The Thrill of It All (1963)


The Thrill of It All (1963)


The Thrill of It All (1963)