The Unforgiven (1960)

Posted By: Tavaz
1080p (FullHD) / BDRip IMDb
The Unforgiven (1960)

The Unforgiven (1960)
BluRay Remux | MKV | 1920x1080 | English | H264 @ 22000 kbps | FLAC @ 226 kbps | 2 h 1 min | 18.9 GiB
Subtitles: English
Genre: Drama, Western, Romance

The neighbors of a frontier family turn on them when it is suspected that their adopted daughter was stolen from the local Kiawa tribe.

b1b3a4a90b864fb1bfc987a8f18c22c6.mkv (18.9 GB)



General
Complete name : ./b1b3a4a90b864fb1bfc987a8f18c22c6.mkv
Format : Matroska
Format version : Version 4 / Version 2
File size : 18.9 GiB
Duration : 2 h 1 min
Overall bit rate mode : Variable
Overall bit rate : 22.2 Mb/s
Encoded date : UTC 2018-03-30 13:38:29
Writing application : mkvmerge v21.0.0 ('Tardigrades Will Inherit The Earth') 64-bit
Writing library : libebml v1.3.5 + libmatroska v1.4.8

Video
ID : 1
Format : AVC
Format/Info : Advanced Video Codec
Format profile : High@L4.1
Format settings : CABAC / 4 Ref Frames
Format settings, CABAC : Yes
Format settings, RefFrames : 4 frames
Format settings, GOP : M=3, N=24
Codec ID : V_MPEG4/ISO/AVC
Duration : 2 h 1 min
Bit rate mode : Variable
Bit rate : 22.0 Mb/s
Maximum bit rate : 35.0 Mb/s
Width : 1 920 pixels
Height : 1 080 pixels
Display aspect ratio : 16:9
Frame rate mode : Constant
Frame rate : 23.976 (24000/1001) FPS
Standard : NTSC
Color space : YUV
Chroma subsampling : 4:2:0
Bit depth : 8 bits
Scan type : Progressive
Bits/(Pixel*Frame) : 0.443
Stream size : 18.7 GiB (99%)
Title : MPEG-4 AVC Video / 22002 kbps / 1080p / 23.976 fps / 16:9 / High Profile 4.1
Language : English
Default : Yes
Forced : No
Color range : Limited
Color primaries : BT.709
Transfer characteristics : BT.709
Matrix coefficients : BT.709

Audio
ID : 2
Format : FLAC
Format/Info : Free Lossless Audio Codec
Codec ID : A_FLAC
Duration : 2 h 1 min
Bit rate mode : Variable
Bit rate : 227 kb/s
Channel(s) : 2 channels
Channel positions : Front: L R
Sampling rate : 48.0 kHz
Frame rate : 11.719 FPS (4096 SPF)
Bit depth : 16 bits
Stream size : 197 MiB (1%)
Title : FLAC Audio / 2.0 / 48 kHz / 227 kbps / 16-bit
Writing library : libFLAC 1.2.1 (UTC 2007-09-17)
Language : English
Default : Yes
Forced : No

Text
ID : 3
Format : PGS
Codec ID : S_HDMV/PGS
Codec ID/Info : Picture based subtitle format used on BDs/HD-DVDs
Duration : 1 h 55 min
Bit rate : 23.2 kb/s
Count of elements : 2050
Stream size : 19.1 MiB (0%)
Language : English
Default : No
Forced : No

Menu
00:00:00.000 : en:Chapter 1
00:10:07.232 : en:Chapter 2
00:27:32.276 : en:Chapter 3
00:52:28.479 : en:Chapter 4
01:09:57.276 : en:Chapter 5
01:22:27.359 : en:Chapter 6
01:31:35.073 : en:Chapter 7
01:46:54.450 : en:Chapter 8





The Unforgiven (1960)


The Unforgiven (1960)


The Unforgiven (1960)


The Unforgiven (1960)


The Unforgiven (1960)