The Valley of Light (2007)

Posted By: Tavaz
720p (HD) / WEBRip IMDb
The Valley of Light (2007)

The Valley of Light (2007)
WEBRip | MOV | 1280x712 | English | H264 @ 1400 kbps | AAC @ 128 kbps | 1 h 37 min | 1.04 GiB
Genre: Drama, Romance

The Valley of Light is a beautifully-filmed, sentimental movie of a young man's quest to make sense of his experiences and find new meaning in life. While this film deals with weighty material such as the suicide of Eleanor's husband and Mathew's untimely death, the content is handled with reverence and sensitivity. Parents can feel confident in sharing this and many other Hallmark films with their families.

f1e5efb1b3b7497f97fddc33390b3768.mp4 (1.0 GB)



General
Complete name : ./f1e5efb1b3b7497f97fddc33390b3768.mp4
Format : MPEG-4
Format profile : Base Media / Version 2
Codec ID : mp42 (isom/iso2/avc1/mp41)
File size : 1.04 GiB
Duration : 1 h 37 min
Overall bit rate mode : Variable
Overall bit rate : 1 534 kb/s
Encoded date : UTC 2018-03-28 02:05:49
Tagged date : UTC 2018-03-28 02:05:49
Writing application : HandBrake 1.0.2 2017012200

Video
ID : 1
Format : AVC
Format/Info : Advanced Video Codec
Format profile : Main@L4
Format settings : CABAC / 9 Ref Frames
Format settings, CABAC : Yes
Format settings, RefFrames : 9 frames
Codec ID : avc1
Codec ID/Info : Advanced Video Coding
Duration : 1 h 37 min
Bit rate : 1 400 kb/s
Width : 1 280 pixels
Height : 712 pixels
Display aspect ratio : 16:9
Frame rate mode : Constant
Frame rate : 29.970 (30000/1001) FPS
Color space : YUV
Chroma subsampling : 4:2:0
Bit depth : 8 bits
Scan type : Progressive
Bits/(Pixel*Frame) : 0.051
Stream size : 976 MiB (91%)
Writing library : x264 core 148 r2708 86b7198
Encoding settings : cabac=1 / ref=9 / deblock=1:0:0 / analyse=0x1:0x131 / me=umh / subme=10 / psy=1 / psy_rd=1.00:0.00 / mixed_ref=1 / me_range=24 / chroma_me=1 / trellis=2 / 8x8dct=0 / cqm=0 / deadzone=21,11 / fast_pskip=1 / chroma_qp_offset=-2 / threads=6 / lookahead_threads=1 / sliced_threads=0 / nr=0 / decimate=1 / interlaced=0 / bluray_compat=0 / constrained_intra=0 / bframes=8 / b_pyramid=2 / b_adapt=2 / b_bias=0 / direct=3 / weightb=1 / open_gop=0 / weightp=2 / keyint=300 / keyint_min=30 / scenecut=40 / intra_refresh=0 / rc_lookahead=60 / rc=2pass / mbtree=1 / bitrate=1400 / ratetol=1.0 / qcomp=0.60 / qpmin=0 / qpmax=69 / qpstep=4 / cplxblur=20.0 / qblur=0.5 / vbv_maxrate=20000 / vbv_bufsize=25000 / nal_hrd=none / filler=0 / ip_ratio=1.40 / aq=1:1.00
Encoded date : UTC 2018-03-28 02:05:49
Tagged date : UTC 2018-03-28 02:05:49
Color range : Limited
Color primaries : BT.709
Transfer characteristics : BT.709
Matrix coefficients : BT.709

Audio
ID : 2
Format : AAC
Format/Info : Advanced Audio Codec
Format profile : LC
Codec ID : mp4a-40-2
Duration : 1 h 37 min
Bit rate mode : Variable
Bit rate : 128 kb/s
Channel(s) : 2 channels
Channel positions : Front: L R
Sampling rate : 48.0 kHz
Frame rate : 46.875 FPS (1024 SPF)
Compression mode : Lossy
Stream size : 89.3 MiB (8%)
Title : Stereo / Stereo
Language : English
Default : Yes
Alternate group : 1
Encoded date : UTC 2018-03-28 02:05:49
Tagged date : UTC 2018-03-28 02:05:49





The Valley of Light (2007)


The Valley of Light (2007)


The Valley of Light (2007)


The Valley of Light (2007)


The Valley of Light (2007)