The Walking Dead S08E06

Posted By: Tavaz
The Walking Dead S08E06

The Walking Dead S08E06
MKV | 720x400 | German | H264 @ 1490 kbps | AC-3 @ 384 kbps | 43 min 30 s | 595 MiB
Genre: Drama

The Walking Dead spielt bislang in der Metropolregion von Atlanta, im Südosten der Vereinigten Staaten, und erzählt vom Kampf einer kleinen Gruppe Überlebender nach einer weltweiten Zombie-Apokalypse. Unter Führung des Sheriffs Rick Grimes ist die Gruppe auf der Suche nach einer dauerhaften und vor allem sicheren Bleibe. Dabei stellen die fast überall präsenten Untoten eine permanent vorhandene Bedrohung dar, die jederzeit ohne Vorwarnung zuschlagen kann. Im Laufe der Zeit wird die Gruppe daher zwangsläufig immer kleiner, da manche Mitglieder den Zombies, gruppenintern auch Beißer oder Streuner (engl. „Biter“ und „Walker“) genannt, zum Opfer fallen, andere die Gruppe verlassen oder sich für den Tod entscheiden. Gleichzeitig kommen ab und zu neue Personen hinzu, wodurch „Verluste“ teilweise ausgeglichen werden können. Während ihre Situation immer aussichtsloser wird, ist die Gruppe zu fast allem bereit, um zu überleben. Die Suche nach einem sicheren Ort führt die Überlebenden durch von Untoten überrannte Städte, durch Wälder, über Highways, zu Militäranlagen und geheimen Forschungseinrichtungen. Überall, wo die Gruppe hingelangt, hat die Seuche bereits gewütet und nahezu alle Menschen in Zombies verwandelt. Dennoch findet sie vereinzelt auch andere Überlebende, die sich ebenfalls zusammengeschlossen haben und teils friedlich, teils neutral, teils aber auch feindlich gesinnt sind.

wakin.dead.s08.e06.x264-pret.mkv (595.0 MB)



General
Unique ID : 248790661653754395594438283399648026444 (0xBB2B56A900E19D3B87762B0A2BE09F4C)
Complete name : ./The.Walking.Dead.S08.E06.UNCUT.WEBHDRip.GERMAN.AC3D.5.1.x264-PRETAiL/wakin.dead.s08.e06.x264-pret.mkv
Format : Matroska
Format version : Version 2
File size : 595 MiB
Duration : 43 min 30 s
Overall bit rate : 1 912 kb/s
Encoded date : UTC 2017-11-27 22:36:44
Writing application : mkvmerge v3.4.0 ('Rapunzel') gebaut am May 15 2010 09:38:20
Writing library : libebml v0.8.0 + libmatroska v0.9.0

Video
ID : 1
Format : AVC
Format/Info : Advanced Video Codec
Format profile : High@L3.1
Format settings : CABAC / 12 Ref Frames
Format settings, CABAC : Yes
Format settings, RefFrames : 12 frames
Codec ID : V_MPEG4/ISO/AVC
Duration : 43 min 30 s
Bit rate : 1 490 kb/s
Width : 720 pixels
Height : 400 pixels
Display aspect ratio : 16:9
Frame rate mode : Constant
Frame rate : 25.000 FPS
Color space : YUV
Chroma subsampling : 4:2:0
Bit depth : 8 bits
Scan type : Progressive
Bits/(Pixel*Frame) : 0.207
Stream size : 464 MiB (78%)
Title : x264 PRETAiL
Writing library : x264 core 152 r2851 ba24899
Encoding settings : cabac=1 / ref=12 / deblock=1:-2:-2 / analyse=0x3:0x113 / me=umh / subme=10 / psy=1 / psy_rd=1.10:0.00 / mixed_ref=1 / me_range=16 / chroma_me=1 / trellis=2 / 8x8dct=1 / cqm=0 / deadzone=21,11 / fast_pskip=0 / chroma_qp_offset=-2 / threads=12 / lookahead_threads=1 / sliced_threads=0 / nr=0 / decimate=1 / interlaced=0 / bluray_compat=0 / constrained_intra=0 / bframes=5 / b_pyramid=2 / b_adapt=1 / b_bias=0 / direct=3 / weightb=1 / open_gop=0 / weightp=1 / keyint=250 / keyint_min=25 / scenecut=40 / intra_refresh=0 / rc_lookahead=40 / rc=crf / mbtree=1 / crf=19.0 / qcomp=0.60 / qpmin=16 / qpmax=69 / qpstep=4 / ip_ratio=1.40 / aq=1:1.00
Language : English
Default : Yes
Forced : Yes

Audio
ID : 2
Format : AC-3
Format/Info : Audio Coding 3
Format settings, Endianness : Big
Codec ID : A_AC3
Duration : 43 min 30 s
Bit rate mode : Constant
Bit rate : 384 kb/s
Channel(s) : 6 channels
Channel positions : Front: L C R, Side: L R, LFE
Sampling rate : 48.0 kHz
Frame rate : 31.250 FPS (1536 SPF)
Bit depth : 16 bits
Compression mode : Lossy
Stream size : 119 MiB (20%)
Language : German
Service kind : Complete Main
Default : Yes
Forced : Yes





The Walking Dead S08E06


The Walking Dead S08E06


The Walking Dead S08E06


The Walking Dead S08E06


The Walking Dead S08E06

All episodes