The Walking Dead S08E04 Nur Irgendwer

Posted By: Tavaz
The Walking Dead S08E04 Nur Irgendwer

The Walking Dead S08E04 Nur Irgendwer
WebHD | MKV | 1920x1080 | German | h264 @ 15375 kbps | AC3 5.1(side) @ 384 kb/s (default) | 40:03 | 4.41 GB
Genre: Drama, Horror, Thriller

The Walking Dead spielt bislang hauptsächlich in der Metropolregion von Atlanta im US-Bundesstaat Georgia und erzählt die Geschichte einer kleinen Gruppe Überlebender nach einer weltweiten Zombie-Apokalypse. Unter der Führung des Deputy Sheriffs Rick Grimes ist die Gruppe auf der Suche nach einer dauerhaften und vor allem sicheren Unterkunft.




tvp-twd-s08e04rp-1080p.mkv (4.4 GB)



General
Unique ID : 112202909723810057484765212253581932209 (0x54697E8EEE3544C2FE667AC07536F6B1)
Complete name : ./tvp-twd-s08e04rp-1080p.mkv
Format : Matroska
Format version : Version 2
File size : 4.41 GiB
Duration : 40 min 3 s
Overall bit rate mode : Variable
Overall bit rate : 15.7 Mb/s
Movie name : The.Walking.Dead.S08E04.Nur.Irgendwer.GERMAN.DUBBED.DL.1080p.WebHD.x264.REPACK-TVP
Encoded date : UTC 2017-11-13 23:48:19
Writing application : mkvmerge v5.6.0 ('Kenya Kane') built on May 28 2012 06:47:39
Writing library : libebml v1.2.2 + libmatroska v1.3.0

Video
ID : 1
Format : AVC
Format/Info : Advanced Video Codec
Format profile : High@L4
Format settings : CABAC / 4 Ref Frames
Format settings, CABAC : Yes
Format settings, RefFrames : 4 frames
Codec ID : V_MPEG4/ISO/AVC
Duration : 40 min 3 s
Bit rate mode : Variable
Bit rate : 14.7 Mb/s
Maximum bit rate : 15.0 Mb/s
Width : 1 920 pixels
Height : 1 080 pixels
Display aspect ratio : 16:9
Frame rate mode : Constant
Frame rate : 25.000 FPS
Original frame rate : 23.976 (24000/1001) FPS
Color space : YUV
Chroma subsampling : 4:2:0
Bit depth : 8 bits
Scan type : Progressive
Bits/(Pixel*Frame) : 0.283
Stream size : 4.10 GiB (93%)
Title : tvp-twd-s08e04rp-1080p
Language : German
Default : Yes
Forced : Yes
Color range : Limited
Color primaries : BT.709
Transfer characteristics : BT.709
Matrix coefficients : BT.709

Audio #1
ID : 2
Format : AC-3
Format/Info : Audio Coding 3
Format settings, Endianness : Big
Codec ID : A_AC3
Duration : 40 min 3 s
Bit rate mode : Constant
Bit rate : 384 kb/s
Channel(s) : 6 channels
Channel positions : Front: L C R, Side: L R, LFE
Sampling rate : 48.0 kHz
Frame rate : 31.250 FPS (1536 SPF)
Bit depth : 16 bits
Compression mode : Lossy
Stream size : 110 MiB (2%)
Language : German
Service kind : Complete Main
Default : Yes
Forced : Yes

Audio #2
ID : 3
Format : AC-3
Format/Info : Audio Coding 3
Format settings, Endianness : Big
Codec ID : A_AC3
Duration : 40 min 3 s
Bit rate mode : Constant
Bit rate : 384 kb/s
Channel(s) : 6 channels
Channel positions : Front: L C R, Side: L R, LFE
Sampling rate : 48.0 kHz
Frame rate : 31.250 FPS (1536 SPF)
Bit depth : 16 bits
Compression mode : Lossy
Stream size : 110 MiB (2%)
Language : English
Service kind : Complete Main
Default : No
Forced : No





The Walking Dead S08E04 Nur Irgendwer


The Walking Dead S08E04 Nur Irgendwer


The Walking Dead S08E04 Nur Irgendwer


The Walking Dead S08E04 Nur Irgendwer