Subcategories

The Boss Baby (2017)

Posted By: JohnSmith
The Boss Baby (2017)

The Boss Baby (2017)
BDRip | MKV / AVC@870 kb/s | 720x306 | 1h 37mn | 694 MB
English: AAC, 123 kb/s (2 ch) | Subtitles: English (forced)
BRRip | MKV / AVC@1553 kb/s | 720x304 | 1h 37mn | 1.36 GB
English: AC3, 448 kb/s (6 ch) | Subtitles: English (forced)
BDRip 720p | MKV / AVC@3300 kb/s | 1280x544 | 1h 37mn | 3.28 GB
English: DTS, 1509 kb/s (6 ch) | Subtitles: English (forced)
BDRip 1080p | MKV / AVC@6512 kb/s | 1920x816 | 1h 37mn | 5.46 GB
English: DTS, 1509 kb/s (6 ch) | Subtitles: English (forced)
BRRip 720p | MKV / HEVC@2000 kb/s | 1280x544 | 1h 37mn | 2.39 GB
English: DTS, 1509 kb/s (6 ch) | Subtitles: English (forced)
BRRip 1080p | MKV / HEVC@2500 kb/s | 1920x816 | 1h 37mn | 2.73 GB
English: DTS, 1509 kb/s (6 ch) | Subtitles: English (forced)
BDRip 1080p | MKV / AVC@6512 kb/s | 1920x816 | 1h 37mn | 7.59 GB
English: DTS-HD MA, 4533 kb/s (8 ch) | Subtitles: English
Genre: Animation | Comedy | Family

A suit-wearing briefcase-carrying baby pairs up with his seven-year old brother to stop the dastardly plot of the CEO of Puppy Co.

IMDB - 1 win.



General
Unique ID : 228944708665282145289211066312234523082 (0xAC3D25A1F8DA8C49BEFDC087674E59CA)
Complete name : D:\Downloads\The.Boss.Baby.2017.BDRip.x264-SPARKS[rarbg]\The.Boss.Baby.2017.BDRip.x264-SPARKS.mkv
Format : Matroska
Format version : Version 4 / Version 2
File size : 694 MiB
Duration : 1 h 37 min
Overall bit rate : 994 kb/s
Encoded date : UTC 2017-07-09 13:51:24
Writing application : mkvmerge v8.3.0 ('Over the Horizon') 64bit
Writing library : libebml v1.3.1 + libmatroska v1.4.2

Video
ID : 1
Format : AVC
Format/Info : Advanced Video Codec
Format profile : High@L3.1
Format settings, CABAC : Yes
Format settings, ReFrames : 10 frames
Codec ID : V_MPEG4/ISO/AVC
Duration : 1 h 37 min
Bit rate : 869 kb/s
Width : 720 pixels
Height : 306 pixels
Display aspect ratio : 2.35:1
Frame rate mode : Constant
Frame rate : 23.976 FPS
Color space : YUV
Chroma subsampling : 4:2:0
Bit depth : 8 bits
Scan type : Progressive
Bits/(Pixel*Frame) : 0.165
Stream size : 606 MiB (87%)
Title : X264
Writing library : x264 core 150 r2833 df79067
Encoding settings : cabac=1 / ref=10 / deblock=1:2:1 / analyse=0x3:0x113 / me=hex / subme=8 / psy=1 / psy_rd=0.60:0.00 / mixed_ref=1 / me_range=16 / chroma_me=1 / trellis=2 / 8x8dct=1 / cqm=0 / deadzone=21,11 / fast_pskip=1 / chroma_qp_offset=-2 / threads=10 / lookahead_threads=1 / sliced_threads=0 / nr=0 / decimate=1 / interlaced=0 / bluray_compat=0 / constrained_intra=0 / bframes=5 / b_pyramid=2 / b_adapt=1 / b_bias=0 / direct=3 / weightb=1 / open_gop=0 / weightp=2 / keyint=250 / keyint_min=23 / scenecut=40 / intra_refresh=0 / rc_lookahead=50 / rc=crf / mbtree=1 / crf=19.0 / qcomp=0.60 / qpmin=0 / qpmax=69 / qpstep=4 / ip_ratio=1.40 / aq=1:0.60
Language : English
Default : Yes
Forced : No
Color range : Limited
Matrix coefficients : BT.709

Audio
ID : 2
Format : AAC
Format/Info : Advanced Audio Codec
Format profile : LC
Codec ID : A_AAC
Duration : 1 h 37 min
Bit rate : 123 kb/s
Channel(s) : 2 channels
Channel positions : Front: L R
Sampling rate : 48.0 kHz
Frame rate : 46.875 FPS (1024 spf)
Compression mode : Lossy
Stream size : 86.0 MiB (12%)
Language : English
Default : Yes
Forced : No

Text
ID : 3
Format : UTF-8
Codec ID : S_TEXT/UTF8
Codec ID/Info : UTF-8 Plain Text
Duration : 17 s 100 ms
Bit rate : 63 b/s
Count of elements : 9
Stream size : 136 Bytes (0%)
Title : English-Forced
Language : English
Default : Yes
Forced : Yes

Menu
00:00:00.000 : en:00:00:00.000
00:03:45.892 : en:00:03:45.892
00:08:58.288 : en:00:08:58.288
00:11:45.914 : en:00:11:45.914
00:14:59.565 : en:00:14:59.565
00:19:38.219 : en:00:19:38.219
00:22:52.788 : en:00:22:52.788
00:28:27.247 : en:00:28:27.247
00:30:26.116 : en:00:30:26.116
00:33:45.482 : en:00:33:45.482
00:36:57.257 : en:00:36:57.257
00:39:18.356 : en:00:39:18.356
00:42:35.344 : en:00:42:35.344
00:46:20.611 : en:00:46:20.611
00:51:37.720 : en:00:51:37.720
00:53:25.285 : en:00:53:25.285
00:56:28.719 : en:00:56:28.719
00:59:35.405 : en:00:59:35.405
01:04:03.173 : en:01:04:03.173
01:08:15.758 : en:01:08:15.758
01:11:29.911 : en:01:11:29.911
01:16:25.247 : en:01:16:25.247
01:23:10.110 : en:01:23:10.110
01:27:36.960 : en:01:27:36.960





General
Unique ID : 237774985465257952287754882837641261641 (0xB2E1CBE45E5B5337813C82B9CDC17249)
Complete name : A:\The.Boss.Baby.2017.BRRip.mkv
Format : Matroska
Format version : Version 4 / Version 2
File size : 1.36 GiB
Duration : 1 h 37 min
Overall bit rate : 2 003 kb/s
Encoded date : UTC 2017-07-09 17:39:57
Writing application : mkvmerge v8.3.0 ('Over the Horizon') 64bit
Writing library : libebml v1.3.1 + libmatroska v1.4.2

Video
ID : 1
Format : AVC
Format/Info : Advanced Video Codec
Format profile : Baseline@L3.1
Format settings, CABAC : No
Format settings, ReFrames : 1 frame
Codec ID : V_MPEG4/ISO/AVC
Duration : 1 h 37 min
Bit rate : 1 553 kb/s
Width : 720 pixels
Height : 304 pixels
Display aspect ratio : 2.35:1
Frame rate mode : Constant
Frame rate : 23.976 (24000/1001) FPS
Color space : YUV
Chroma subsampling : 4:2:0
Bit depth : 8 bits
Scan type : Progressive
Bits/(Pixel*Frame) : 0.296
Stream size : 1.06 GiB (78%)
Writing library : x264 core 148 r2708 86b7198
Encoding settings : cabac=0 / ref=1 / deblock=1:0:0 / analyse=0x1:0x111 / me=hex / subme=2 / psy=1 / psy_rd=1.00:0.00 / mixed_ref=0 / me_range=16 / chroma_me=1 / trellis=0 / 8x8dct=0 / cqm=0 / deadzone=21,11 / fast_pskip=1 / chroma_qp_offset=0 / threads=9 / lookahead_threads=2 / sliced_threads=0 / nr=0 / decimate=1 / interlaced=0 / bluray_compat=0 / constrained_intra=0 / bframes=0 / weightp=0 / keyint=240 / keyint_min=24 / scenecut=40 / intra_refresh=0 / rc_lookahead=10 / rc=2pass / mbtree=1 / bitrate=1553 / ratetol=1.0 / qcomp=0.60 / qpmin=0 / qpmax=69 / qpstep=4 / cplxblur=20.0 / qblur=0.5 / vbv_maxrate=14000 / vbv_bufsize=14000 / nal_hrd=none / filler=0 / ip_ratio=1.40 / aq=1:1.00
Default : Yes
Forced : No
Color range : Limited
Color primaries : BT.709
Transfer characteristics : BT.709
Matrix coefficients : BT.709

Audio
ID : 2
Format : AC-3
Format/Info : Audio Coding 3
Format settings, Endianness : Big
Codec ID : A_AC3
Duration : 1 h 37 min
Bit rate mode : Constant
Bit rate : 448 kb/s
Channel(s) : 6 channels
Channel positions : Front: L C R, Side: L R, LFE
Sampling rate : 48.0 kHz
Frame rate : 31.250 FPS (1536 spf)
Bit depth : 16 bits
Compression mode : Lossy
Delay relative to video : -5 ms
Stream size : 312 MiB (22%)
Title : Surround
Language : English
Service kind : Complete Main
Default : Yes
Forced : No

Text
ID : 3
Format : UTF-8
Codec ID : S_TEXT/UTF8
Codec ID/Info : UTF-8 Plain Text
Duration : 17 s 100 ms
Bit rate : 63 b/s
Count of elements : 9
Stream size : 136 Bytes (0%)
Title : English-Forced
Language : English
Default : Yes
Forced : Yes





General
Unique ID : 189416304345780262797740333890814897682 (0x8E8040D4F5113C5BA93EF2E97F486E12)
Complete name : D:\Downloads\The.Boss.Baby.2017.720p.BluRay.x264-SPARKS[rarbg]\The.Boss.Baby.2017.720p.BluRay.x264-SPARKS.mkv
Format : Matroska
Format version : Version 4 / Version 2
File size : 3.28 GiB
Duration : 1 h 37 min
Overall bit rate : 4 812 kb/s
Encoded date : UTC 2017-07-09 13:36:52
Writing application : mkvmerge v8.3.0 ('Over the Horizon') 64bit
Writing library : libebml v1.3.1 + libmatroska v1.4.2

Video
ID : 1
Format : AVC
Format/Info : Advanced Video Codec
Format profile : High@L4.1
Format settings, CABAC : Yes
Format settings, ReFrames : 5 frames
Codec ID : V_MPEG4/ISO/AVC
Duration : 1 h 37 min
Bit rate : 3 301 kb/s
Width : 1 280 pixels
Height : 544 pixels
Display aspect ratio : 2.35:1
Frame rate mode : Constant
Frame rate : 23.976 FPS
Color space : YUV
Chroma subsampling : 4:2:0
Bit depth : 8 bits
Scan type : Progressive
Bits/(Pixel*Frame) : 0.198
Stream size : 2.25 GiB (69%)
Writing library : x264 core 150 r2833 df79067
Encoding settings : cabac=1 / ref=5 / deblock=1:0:0 / analyse=0x3:0x133 / me=umh / subme=7 / psy=1 / psy_rd=1.00:0.00 / mixed_ref=1 / me_range=16 / chroma_me=1 / trellis=1 / 8x8dct=1 / cqm=0 / deadzone=21,11 / fast_pskip=0 / chroma_qp_offset=-2 / threads=17 / lookahead_threads=2 / sliced_threads=0 / nr=0 / decimate=1 / interlaced=0 / bluray_compat=0 / constrained_intra=0 / bframes=3 / b_pyramid=2 / b_adapt=1 / b_bias=0 / direct=1 / weightb=1 / open_gop=0 / weightp=2 / keyint=250 / keyint_min=23 / scenecut=40 / intra_refresh=0 / rc_lookahead=40 / rc=2pass / mbtree=1 / bitrate=3301 / ratetol=1.0 / qcomp=0.60 / qpmin=0 / qpmax=69 / qpstep=4 / cplxblur=20.0 / qblur=0.5 / ip_ratio=1.40 / aq=1:1.00
Language : English
Default : Yes
Forced : No

Audio
ID : 2
Format : DTS
Format/Info : Digital Theater Systems
Format profile : ES Matrix / Core
Mode : 16
Format settings, Endianness : Big
Codec ID : A_DTS
Duration : 1 h 37 min
Bit rate mode : Constant
Bit rate : 1 509 kb/s
Channel(s) : 7 channels / 6 channels
Channel positions : Front: L C R, Side: L R, Back: C, LFE / Front: L C R, Side: L R, LFE
Sampling rate : 48.0 kHz
Frame rate : 93.750 FPS (512 spf)
Bit depth : 24 bits
Compression mode : Lossy
Stream size : 1.03 GiB (31%)
Language : English
Default : Yes
Forced : No

Text
ID : 3
Format : UTF-8
Codec ID : S_TEXT/UTF8
Codec ID/Info : UTF-8 Plain Text
Duration : 17 s 100 ms
Bit rate : 63 b/s
Count of elements : 9
Stream size : 136 Bytes (0%)
Title : English-Forced
Language : English
Default : Yes
Forced : Yes

Menu
00:00:00.000 : en:00:00:00.000
00:03:45.892 : en:00:03:45.892
00:08:58.288 : en:00:08:58.288
00:11:45.914 : en:00:11:45.914
00:14:59.565 : en:00:14:59.565
00:19:38.219 : en:00:19:38.219
00:22:52.788 : en:00:22:52.788
00:28:27.247 : en:00:28:27.247
00:30:26.116 : en:00:30:26.116
00:33:45.482 : en:00:33:45.482
00:36:57.257 : en:00:36:57.257
00:39:18.356 : en:00:39:18.356
00:42:35.344 : en:00:42:35.344
00:46:20.611 : en:00:46:20.611
00:51:37.720 : en:00:51:37.720
00:53:25.285 : en:00:53:25.285
00:56:28.719 : en:00:56:28.719
00:59:35.405 : en:00:59:35.405
01:04:03.173 : en:01:04:03.173
01:08:15.758 : en:01:08:15.758
01:11:29.911 : en:01:11:29.911
01:16:25.247 : en:01:16:25.247
01:23:10.110 : en:01:23:10.110
01:27:36.960 : en:01:27:36.960





General
Unique ID : 232843188769555404023224757174833094569 (0xAF2BF78AAD4117E69E5A4C7300219FA9)
Complete name : A:\The.Boss.Baby.2017.1080p.BluRay.x264-SPARKS.mkv
Format : Matroska
Format version : Version 4 / Version 2
File size : 5.46 GiB
Duration : 1 h 37 min
Overall bit rate : 8 023 kb/s
Encoded date : UTC 2017-07-09 14:46:06
Writing application : mkvmerge v8.3.0 ('Over the Horizon') 64bit
Writing library : libebml v1.3.1 + libmatroska v1.4.2

Video
ID : 1
Format : AVC
Format/Info : Advanced Video Codec
Format profile : High@L4.1
Format settings, CABAC : Yes
Format settings, ReFrames : 5 frames
Codec ID : V_MPEG4/ISO/AVC
Duration : 1 h 37 min
Bit rate : 6 512 kb/s
Width : 1 920 pixels
Height : 816 pixels
Display aspect ratio : 2.35:1
Frame rate mode : Constant
Frame rate : 23.976 FPS
Color space : YUV
Chroma subsampling : 4:2:0
Bit depth : 8 bits
Scan type : Progressive
Bits/(Pixel*Frame) : 0.173
Stream size : 4.44 GiB (81%)
Writing library : x264 core 150 r2833 df79067
Encoding settings : cabac=1 / ref=5 / deblock=1:0:0 / analyse=0x3:0x133 / me=umh / subme=7 / psy=1 / psy_rd=1.00:0.00 / mixed_ref=1 / me_range=16 / chroma_me=1 / trellis=1 / 8x8dct=1 / cqm=0 / deadzone=21,11 / fast_pskip=0 / chroma_qp_offset=-2 / threads=24 / lookahead_threads=4 / sliced_threads=0 / nr=0 / decimate=1 / interlaced=0 / bluray_compat=0 / constrained_intra=0 / bframes=3 / b_pyramid=2 / b_adapt=1 / b_bias=0 / direct=1 / weightb=1 / open_gop=0 / weightp=2 / keyint=250 / keyint_min=23 / scenecut=40 / intra_refresh=0 / rc_lookahead=40 / rc=2pass / mbtree=1 / bitrate=6512 / ratetol=1.0 / qcomp=0.60 / qpmin=0 / qpmax=69 / qpstep=4 / cplxblur=20.0 / qblur=0.5 / ip_ratio=1.40 / aq=1:1.00
Language : English
Default : Yes
Forced : No

Audio
ID : 2
Format : DTS
Format/Info : Digital Theater Systems
Format profile : ES Matrix / Core
Mode : 16
Format settings, Endianness : Big
Codec ID : A_DTS
Duration : 1 h 37 min
Bit rate mode : Constant
Bit rate : 1 509 kb/s
Channel(s) : 7 channels / 6 channels
Channel positions : Front: L C R, Side: L R, Back: C, LFE / Front: L C R, Side: L R, LFE
Sampling rate : 48.0 kHz
Frame rate : 93.750 FPS (512 spf)
Bit depth : 24 bits
Compression mode : Lossy
Stream size : 1.03 GiB (19%)
Language : English
Default : Yes
Forced : No

Text
ID : 3
Format : UTF-8
Codec ID : S_TEXT/UTF8
Codec ID/Info : UTF-8 Plain Text
Duration : 17 s 100 ms
Bit rate : 63 b/s
Count of elements : 9
Stream size : 136 Bytes (0%)
Title : English-Forced
Language : English
Default : Yes
Forced : Yes

Menu
00:00:00.000 : en:00:00:00.000
00:03:45.892 : en:00:03:45.892
00:08:58.288 : en:00:08:58.288
00:11:45.914 : en:00:11:45.914
00:14:59.565 : en:00:14:59.565
00:19:38.219 : en:00:19:38.219
00:22:52.788 : en:00:22:52.788
00:28:27.247 : en:00:28:27.247
00:30:26.116 : en:00:30:26.116
00:33:45.482 : en:00:33:45.482
00:36:57.257 : en:00:36:57.257
00:39:18.356 : en:00:39:18.356
00:42:35.344 : en:00:42:35.344
00:46:20.611 : en:00:46:20.611
00:51:37.720 : en:00:51:37.720
00:53:25.285 : en:00:53:25.285
00:56:28.719 : en:00:56:28.719
00:59:35.405 : en:00:59:35.405
01:04:03.173 : en:01:04:03.173
01:08:15.758 : en:01:08:15.758
01:11:29.911 : en:01:11:29.911
01:16:25.247 : en:01:16:25.247
01:23:10.110 : en:01:23:10.110
01:27:36.960 : en:01:27:36.960





General
Unique ID : 249671693806952428541519805018024306281 (0xBBD504E62762E041BDA88CB845A1E669)
Complete name : C:\The.Boss.Baby.2017.720p.BRRip.HEVC.mkv
Format : Matroska
Format version : Version 4 / Version 2
File size : 2.39 GiB
Duration : 1 h 37 min
Overall bit rate : 3 511 kb/s
Encoded date : UTC 2017-07-09 17:56:32
Writing application : mkvmerge v8.3.0 ('Over the Horizon') 64bit
Writing library : libebml v1.3.1 + libmatroska v1.4.2

Video
ID : 1
Format : HEVC
Format/Info : High Efficiency Video Coding
Format profile : Main@L3.1@Main
Codec ID : V_MPEGH/ISO/HEVC
Duration : 1 h 37 min
Bit rate : 2 000 kb/s
Width : 1 280 pixels
Height : 544 pixels
Display aspect ratio : 2.35:1
Frame rate mode : Constant
Frame rate : 23.976 (24000/1001) FPS
Color space : YUV
Chroma subsampling : 4:2:0
Bit depth : 8 bits
Bits/(Pixel*Frame) : 0.120
Stream size : 1.36 GiB (57%)
Writing library : x265 2.1:[Windows][GCC 5.4.0][64 bit] 8bit
Encoding settings : wpp / ctu=32 / min-cu-size=16 / max-tu-size=32 / tu-intra-depth=1 / tu-inter-depth=1 / me=0 / subme=0 / merange=57 / no-rect / no-amp / max-merge=2 / temporal-mvp / early-skip / rskip / rdpenalty=0 / no-tskip / no-tskip-fast / strong-intra-smoothing / no-lossless / no-cu-lossless / no-constrained-intra / fast-intra / open-gop / no-temporal-layers / interlace=0 / keyint=240 / min-keyint=24 / scenecut=0 / rc-lookahead=5 / lookahead-slices=0 / bframes=3 / bframe-bias=0 / b-adapt=0 / ref=1 / limit-refs=0 / no-limit-modes / no-weightp / no-weightb / aq-mode=1 / qg-size=32 / aq-strength=0.00 / cbqpoffs=0 / crqpoffs=0 / rd=2 / psy-rd=2.00 / rdoq-level=0 / psy-rdoq=0.00 / log2-max-poc-lsb=8 / no-rd-refine / no-signhide / deblock=0:0 / no-sao / no-sao-non-deblock / b-pyramid / cutree / no-intra-refresh / rc=abr / bitrate=2000 / qcomp=0.60 / qpmin=0 / qpmax=69 / qpstep=4 / ipratio=1.40 / pbratio=1.30
Default : Yes
Forced : No
Color range : Limited
Color primaries : BT.709
Transfer characteristics : BT.709
Matrix coefficients : BT.709

Audio
ID : 2
Format : DTS
Format/Info : Digital Theater Systems
Format profile : ES Matrix / Core
Mode : 16
Format settings, Endianness : Big
Codec ID : A_DTS
Duration : 1 h 37 min
Bit rate mode : Constant
Bit rate : 1 509 kb/s
Channel(s) : 7 channels / 6 channels
Channel positions : Front: L C R, Side: L R, Back: C, LFE / Front: L C R, Side: L R, LFE
Sampling rate : 48.0 kHz
Frame rate : 93.750 FPS (512 spf)
Bit depth : 24 bits
Compression mode : Lossy
Stream size : 1.03 GiB (43%)
Title : Surround
Language : English
Default : Yes
Forced : No

Text
ID : 3
Format : UTF-8
Codec ID : S_TEXT/UTF8
Codec ID/Info : UTF-8 Plain Text
Duration : 17 s 100 ms
Bit rate : 63 b/s
Count of elements : 9
Stream size : 136 Bytes (0%)
Title : English-Forced
Language : English
Default : Yes
Forced : Yes





General
Unique ID : 188192125022867181407342465867402134943 (0x8D947C219DB73E10A98B540F504F459F)
Complete name : A:\The.Boss.Baby.2017.1080p.BRRip.HEVC.mkv
Format : Matroska
Format version : Version 4 / Version 2
File size : 2.73 GiB
Duration : 1 h 37 min
Overall bit rate : 4 009 kb/s
Encoded date : UTC 2017-07-09 18:12:12
Writing application : mkvmerge v8.3.0 ('Over the Horizon') 64bit
Writing library : libebml v1.3.1 + libmatroska v1.4.2

Video
ID : 1
Format : HEVC
Format/Info : High Efficiency Video Coding
Format profile : Main@L4@Main
Codec ID : V_MPEGH/ISO/HEVC
Duration : 1 h 37 min
Bit rate : 2 498 kb/s
Width : 1 920 pixels
Height : 816 pixels
Display aspect ratio : 2.35:1
Frame rate mode : Constant
Frame rate : 23.976 (24000/1001) FPS
Color space : YUV
Chroma subsampling : 4:2:0
Bit depth : 8 bits
Bits/(Pixel*Frame) : 0.066
Stream size : 1.70 GiB (62%)
Writing library : x265 2.1:[Windows][GCC 5.4.0][64 bit] 8bit
Encoding settings : wpp / ctu=32 / min-cu-size=16 / max-tu-size=32 / tu-intra-depth=1 / tu-inter-depth=1 / me=0 / subme=0 / merange=57 / no-rect / no-amp / max-merge=2 / temporal-mvp / early-skip / rskip / rdpenalty=0 / no-tskip / no-tskip-fast / strong-intra-smoothing / no-lossless / no-cu-lossless / no-constrained-intra / fast-intra / open-gop / no-temporal-layers / interlace=0 / keyint=240 / min-keyint=24 / scenecut=0 / rc-lookahead=5 / lookahead-slices=5 / bframes=3 / bframe-bias=0 / b-adapt=0 / ref=1 / limit-refs=0 / no-limit-modes / no-weightp / no-weightb / aq-mode=1 / qg-size=32 / aq-strength=0.00 / cbqpoffs=0 / crqpoffs=0 / rd=2 / psy-rd=2.00 / rdoq-level=0 / psy-rdoq=0.00 / log2-max-poc-lsb=8 / no-rd-refine / no-signhide / deblock=0:0 / no-sao / no-sao-non-deblock / b-pyramid / cutree / no-intra-refresh / rc=abr / bitrate=2500 / qcomp=0.60 / qpmin=0 / qpmax=69 / qpstep=4 / ipratio=1.40 / pbratio=1.30
Default : Yes
Forced : No
Color range : Limited
Color primaries : BT.709
Transfer characteristics : BT.709
Matrix coefficients : BT.709

Audio
ID : 2
Format : DTS
Format/Info : Digital Theater Systems
Format profile : ES Matrix / Core
Mode : 16
Format settings, Endianness : Big
Codec ID : A_DTS
Duration : 1 h 37 min
Bit rate mode : Constant
Bit rate : 1 509 kb/s
Channel(s) : 7 channels / 6 channels
Channel positions : Front: L C R, Side: L R, Back: C, LFE / Front: L C R, Side: L R, LFE
Sampling rate : 48.0 kHz
Frame rate : 93.750 FPS (512 spf)
Bit depth : 24 bits
Compression mode : Lossy
Stream size : 1.03 GiB (38%)
Title : Surround
Language : English
Default : Yes
Forced : No

Text
ID : 3
Format : UTF-8
Codec ID : S_TEXT/UTF8
Codec ID/Info : UTF-8 Plain Text
Duration : 17 s 100 ms
Bit rate : 63 b/s
Count of elements : 9
Stream size : 136 Bytes (0%)
Title : English-Forced
Language : English
Default : Yes
Forced : Yes





General
Unique ID : 182293010827905304997576307613777498760 (0x89245B58983A6AB2B5E7A52410039288)
Complete name : D:\Downloads\The.Boss.Baby.2017.1080p.BluRay.x264.DTS-HD.MA.7.1-FGT\The.Boss.Baby.2017.1080p.BluRay.x264.DTS-HD.MA.7.1-FGT.mkv
Format : Matroska
Format version : Version 4 / Version 2
File size : 7.59 GiB
Duration : 1 h 37 min
Overall bit rate : 11.1 Mb/s
Movie name : The.Boss.Baby.2017.1080p.BluRay.x264.DTS-HD.MA.7.1-FGT
Encoded date : UTC 2017-07-10 18:04:21
Writing application : mkvmerge v13.0.0 ('The Juggler') 64bit
Writing library : libebml v1.3.4 + libmatroska v1.4.5
Cover : Yes
Attachments : cover_land.jpg / small_cover.jpg / small_cover_land.jpg / cover.jpg

Video
ID : 1
Format : AVC
Format/Info : Advanced Video Codec
Format profile : High@L4.1
Format settings, CABAC : Yes
Format settings, ReFrames : 5 frames
Codec ID : V_MPEG4/ISO/AVC
Duration : 1 h 37 min
Nominal bit rate : 6 512 kb/s
Width : 1 920 pixels
Height : 816 pixels
Display aspect ratio : 2.35:1
Frame rate mode : Constant
Frame rate : 23.976 FPS
Color space : YUV
Chroma subsampling : 4:2:0
Bit depth : 8 bits
Scan type : Progressive
Bits/(Pixel*Frame) : 0.173
Title : The.Boss.Baby.2017.1080p.BluRay.x264.DTS-HD.MA.7.1-FGT
Writing library : x264 core 150 r2833 df79067
Encoding settings : cabac=1 / ref=5 / deblock=1:0:0 / analyse=0x3:0x133 / me=umh / subme=7 / psy=1 / psy_rd=1.00:0.00 / mixed_ref=1 / me_range=16 / chroma_me=1 / trellis=1 / 8x8dct=1 / cqm=0 / deadzone=21,11 / fast_pskip=0 / chroma_qp_offset=-2 / threads=24 / lookahead_threads=4 / sliced_threads=0 / nr=0 / decimate=1 / interlaced=0 / bluray_compat=0 / constrained_intra=0 / bframes=3 / b_pyramid=2 / b_adapt=1 / b_bias=0 / direct=1 / weightb=1 / open_gop=0 / weightp=2 / keyint=250 / keyint_min=23 / scenecut=40 / intra_refresh=0 / rc_lookahead=40 / rc=2pass / mbtree=1 / bitrate=6512 / ratetol=1.0 / qcomp=0.60 / qpmin=0 / qpmax=69 / qpstep=4 / cplxblur=20.0 / qblur=0.5 / ip_ratio=1.40 / aq=1:1.00
Language : English
Default : Yes
Forced : No

Audio
ID : 2
Format : DTS
Format/Info : Digital Theater Systems
Format profile : MA / ES Matrix / Core
Mode : 16
Format settings, Endianness : Big
Codec ID : A_DTS
Duration : 1 h 37 min
Bit rate mode : Variable / Constant / Constant
Bit rate : Unknown / 1 509 kb/s / 1 509 kb/s
Channel(s) : 8 channels / 7 channels / 6 channels
Channel positions : Front: L C R, Side: L R, Back: L R, LFE / Front: L C R, Side: L R, Back: C, LFE / Front: L C R, Side: L R, LFE
Sampling rate : 48.0 kHz
Frame rate : 93.750 FPS (512 spf)
Bit depth : 24 bits
Compression mode : Lossless / Lossy / Lossy
Title : The.Boss.Baby.2017.1080p.BluRay.x264.DTS-HD.MA.7.1-FGT
Language : English
Default : Yes
Forced : No

Text #1
ID : 3
Format : PGS
Muxing mode : zlib
Codec ID : S_HDMV/PGS
Codec ID/Info : Picture based subtitle format used on BDs/HD-DVDs
Title : English-PGS
Language : English
Default : Yes
Forced : No

Text #2
ID : 4
Format : UTF-8
Codec ID : S_TEXT/UTF8
Codec ID/Info : UTF-8 Plain Text
Title : English-FORCED-SRT
Language : English
Default : No
Forced : No

Text #3
ID : 5
Format : PGS
Muxing mode : zlib
Codec ID : S_HDMV/PGS
Codec ID/Info : Picture based subtitle format used on BDs/HD-DVDs
Title : Spanish-PGS
Language : Spanish
Default : No
Forced : No

Text #4
ID : 6
Format : PGS
Muxing mode : zlib
Codec ID : S_HDMV/PGS
Codec ID/Info : Picture based subtitle format used on BDs/HD-DVDs
Title : French-PGS
Language : French
Default : No
Forced : No

Text #5
ID : 7
Format : PGS
Muxing mode : zlib
Codec ID : S_HDMV/PGS
Codec ID/Info : Picture based subtitle format used on BDs/HD-DVDs
Title : Danish-PGS
Language : Danish
Default : No
Forced : No

Text #6
ID : 8
Format : PGS
Muxing mode : zlib
Codec ID : S_HDMV/PGS
Codec ID/Info : Picture based subtitle format used on BDs/HD-DVDs
Title : Finnish-PGS
Language : Finnish
Default : No
Forced : No

Text #7
ID : 9
Format : PGS
Muxing mode : zlib
Codec ID : S_HDMV/PGS
Codec ID/Info : Picture based subtitle format used on BDs/HD-DVDs
Title : Norwegian-PGS
Language : Norwegian
Default : No
Forced : No

Text #8
ID : 10
Format : PGS
Muxing mode : zlib
Codec ID : S_HDMV/PGS
Codec ID/Info : Picture based subtitle format used on BDs/HD-DVDs
Title : Portuguese-PGS
Language : Portuguese
Default : No
Forced : No

Text #9
ID : 11
Format : PGS
Muxing mode : zlib
Codec ID : S_HDMV/PGS
Codec ID/Info : Picture based subtitle format used on BDs/HD-DVDs
Title : Swedish-PGS
Language : Swedish
Default : No
Forced : No

Menu
00:00:00.000 : en:00:00:00.000
00:03:45.892 : en:00:03:45.892
00:08:58.288 : en:00:08:58.288
00:11:45.914 : en:00:11:45.914
00:14:59.565 : en:00:14:59.565
00:19:38.219 : en:00:19:38.219
00:22:52.788 : en:00:22:52.788
00:28:27.247 : en:00:28:27.247
00:30:26.116 : en:00:30:26.116
00:33:45.482 : en:00:33:45.482
00:36:57.257 : en:00:36:57.257
00:39:18.356 : en:00:39:18.356
00:42:35.344 : en:00:42:35.344
00:46:20.611 : en:00:46:20.611
00:51:37.720 : en:00:51:37.720
00:53:25.285 : en:00:53:25.285
00:56:28.719 : en:00:56:28.719
00:59:35.405 : en:00:59:35.405
01:04:03.173 : en:01:04:03.173
01:08:15.758 : en:01:08:15.758
01:11:29.911 : en:01:11:29.911
01:16:25.247 : en:01:16:25.247
01:23:10.110 : en:01:23:10.110
01:27:36.960 : en:01:27:36.960




Screenshots BDRip

The Boss Baby (2017)

The Boss Baby (2017)

The Boss Baby (2017)


Screenshots BRRip

The Boss Baby (2017)

The Boss Baby (2017)

The Boss Baby (2017)


Screenshots BDRip 720p

The Boss Baby (2017)

The Boss Baby (2017)

The Boss Baby (2017)


Screenshots BDRip 1080p

The Boss Baby (2017)

The Boss Baby (2017)

The Boss Baby (2017)


Screenshots BRRip 720p HEVC

The Boss Baby (2017)

The Boss Baby (2017)

The Boss Baby (2017)


Screenshots BRRip 1080p HEVC

The Boss Baby (2017)

The Boss Baby (2017)

The Boss Baby (2017)


Screenshots BDRip 1080p DTS-HD MA

The Boss Baby (2017)

The Boss Baby (2017)

The Boss Baby (2017)