The Day That Changed My Life (2015)

Posted By: notbanned
The Day That Changed My Life (2015)

The Day That Changed My Life (2015)
HDTV | 1280x720 | .MKV/AVC @ 2266 Kbps | 45 min 11 s | 874 MiB
Audio: English AC3 384 kbps, 6 channels | Subs: None
Genre: Documentary

A powerful, uncensored and insightful documentary built around raw, heartfelt, never-seen-before, interviews captured in the immediate aftermath of the February 22nd 2011 earthquake in Christchurch. Survivors share their stories of panic and heart-breaking loss, courage and miraculous survival.
More info


General
Unique ID : 201434815937995331439130481955136879652 (0x978AEF33E6E95C36AD46135C29E43C24)
Complete name : The.Day.That.Changed.My.Life.720p.mkv
Format : Matroska
Format version : Version 4 / Version 2
File size : 874 MiB
Duration : 45 min 11 s
Overall bit rate : 2 704 kb/s

Video
ID : 1
Format : AVC
Format/Info : Advanced Video Codec
Format profile : High@L4.1
Format settings, CABAC : Yes
Format settings, ReFrames : 5 frames
Codec ID : V_MPEG4/ISO/AVC
Duration : 45 min 11 s
Bit rate : 2 266 kb/s
Width : 1 280 pixels
Height : 720 pixels
Display aspect ratio : 16:9
Frame rate mode : Constant
Frame rate : 25.000 FPS
Color space : YUV
Chroma subsampling : 4:2:0
Bit depth : 8 bits
Scan type : Progressive
Bits/(Pixel*Frame) : 0.098
Stream size : 733 MiB (84%)
Writing library : x264 core 144 r2525 40bb568
Encoding settings : cabac=1 / ref=5 / deblock=1:1:1 / analyse=0x3:0x133 / me=umh / subme=8 / psy=1 / psy_rd=1.00:0.00 / mixed_ref=1 / me_range=16 / chroma_me=1 / trellis=1 / 8x8dct=1 / cqm=0 / deadzone=21,11 / fast_pskip=1 / chroma_qp_offset=-2 / threads=18 / lookahead_threads=3 / sliced_threads=0 / nr=0 / decimate=1 / interlaced=0 / bluray_compat=0 / constrained_intra=0 / bframes=3 / b_pyramid=2 / b_adapt=2 / b_bias=0 / direct=3 / weightb=1 / open_gop=0 / weightp=2 / keyint=250 / keyint_min=25 / scenecut=40 / intra_refresh=0 / rc_lookahead=50 / rc=crf / mbtree=1 / crf=20.0 / qcomp=0.60 / qpmin=0 / qpmax=69 / qpstep=4 / ip_ratio=1.40 / aq=1:1.00
Language : English
Default : Yes
Forced : No
Color range : Limited
Matrix coefficients : BT.709

Audio
ID : 2
Format : AC-3
Format/Info : Audio Coding 3
Format settings, Endianness : Big
Codec ID : A_AC3
Duration : 45 min 11 s
Bit rate mode : Constant
Bit rate : 384 kb/s
Channel(s) : 6 channels
Channel positions : Front: L C R, Side: L R, LFE
Sampling rate : 48.0 kHz
Frame rate : 31.250 FPS (1536 spf)
Bit depth : 16 bits
Compression mode : Lossy
Stream size : 124 MiB (14%)
Service kind : Complete Main
Default : Yes
Forced : No


Screenshots:

The Day That Changed My Life (2015)

The Day That Changed My Life (2015)

The Day That Changed My Life (2015)

The Day That Changed My Life (2015)