The Dead Don't Die (2019)

Posted By: Barfin
1080p (FullHD) / BDRip IMDb
The Dead Don't Die (2019)

The Dead Don't Die (2019)
WEB-DL 1080p | MKV / AVC@8975 kb/s | 1920x1080 | 1h 44mn | Deutsch (dubbed): AC3, 384 kb/s (6 ch) | Subtitles: Deutsch | 6.83 GB
Genre: Comedy | Fantasy | Horror

In die friedliche Kleinstadt Centerville fallen plötzlich Zombies ein und terrorisieren die Anwohner der verschlafenen Ortschaft. Nach ersten Angriffen und leeren Gräbern auf dem Friedhof ist schnell klar, dass es sich hierbei nicht um die Angriffe wilder Tiere handelt. Stattdessen werden die zurückgekehrten Toten von den Dingen angezogen, die sie schon im Leben getan haben. Das kann dann schon mal Zombies hervorbringen, die ein großes Verlangen nach Kaffee und Chardonnay verspüren.


General
Unique ID : 193935627432051478627757488430107200375 (0x91E6A4A9C53C1980B719709EB9AE0B77)
Complete name : F:\The.Dead.Dont.Die.2019.German.AC3D.5.1.DL.1080p.BluRay.x264.mkv
Format : Matroska
Format version : Version 4
File size : 6.83 GiB
Duration : 1 h 44 min
Overall bit rate : 9 359 kb/s
Encoded date : UTC 2019-09-17 14:40:50
Writing application : mkvmerge v7.8.0 ('River Man') 32bit built on Apr 3 2015 12:11:22
Writing library : libebml v1.3.1 + libmatroska v1.4.2

Video
ID : 1
Format : AVC
Format/Info : Advanced Video Codec
Format profile : High@L4.1
Format settings : CABAC / 4 Ref Frames
Format settings, CABAC : Yes
Format settings, ReFrames : 4 frames
Codec ID : V_MPEG4/ISO/AVC
Duration : 1 h 44 min
Bit rate : 8 975 kb/s
Width : 1 920 pixels
Height : 1 080 pixels
Display aspect ratio : 16:9
Frame rate mode : Constant
Frame rate : 23.976 (24000/1001) FPS
Color space : YUV
Chroma subsampling : 4:2:0
Bit depth : 8 bits
Scan type : Progressive
Bits/(Pixel*Frame) : 0.181
Stream size : 6.55 GiB (96%)
Writing library : x264 core 158 r2984 3759fcb
Encoding settings : cabac=1 / ref=4 / deblock=1:-3:-3 / analyse=0x3:0x113 / me=umh / subme=8 / psy=1 / psy_rd=1.00:0.00 / mixed_ref=1 / me_range=16 / chroma_me=1 / trellis=1 / 8x8dct=1 / cqm=0 / deadzone=21,11 / fast_pskip=1 / chroma_qp_offset=-2 / threads=30 / lookahead_threads=5 / sliced_threads=0 / nr=0 / decimate=1 / interlaced=0 / bluray_compat=0 / constrained_intra=0 / bframes=3 / b_pyramid=2 / b_adapt=1 / b_bias=0 / direct=3 / weightb=1 / open_gop=0 / weightp=2 / keyint=250 / keyint_min=23 / scenecut=40 / intra_refresh=0 / rc_lookahead=50 / rc=2pass / mbtree=1 / bitrate=8975 / ratetol=1.0 / qcomp=0.60 / qpmin=0 / qpmax=69 / qpstep=4 / cplxblur=20.0 / qblur=0.5 / ip_ratio=1.40 / aq=1:1.00
Language : English
Default : Yes
Forced : No

Audio
ID : 2
Format : AC-3
Format/Info : Audio Coding 3
Commercial name : Dolby Digital
Codec ID : A_AC3
Duration : 1 h 44 min
Bit rate mode : Constant
Bit rate : 384 kb/s
Channel(s) : 6 channels
Channel layout : L R C LFE Ls Rs
Sampling rate : 48.0 kHz
Frame rate : 31.250 FPS (1536 SPF)
Bit depth : 16 bits
Compression mode : Lossy
Stream size : 287 MiB (4%)
Language : German
Service kind : Complete Main
Default : Yes
Forced : Yes

Text
ID : 3
Format : UTF-8
Codec ID : S_TEXT/UTF8
Codec ID/Info : UTF-8 Plain Text
Duration : 1 h 42 min
Bit rate : 37 b/s
Count of elements : 941
Stream size : 27.9 KiB (0%)
Language : German
Default : No
Forced : No

Menu
00:00:00.000 : en:00:00:00.000
00:05:01.468 : en:00:05:01.468
00:10:04.437 : en:00:10:04.437
00:17:04.148 : en:00:17:04.148
00:22:28.847 : en:00:22:28.847
00:28:04.725 : en:00:28:04.725
00:31:36.269 : en:00:31:36.269
00:37:56.649 : en:00:37:56.649
00:43:22.642 : en:00:43:22.642
00:50:53.050 : en:00:50:53.050
00:57:04.504 : en:00:57:04.504
01:01:16.965 : en:01:01:16.965
01:06:41.581 : en:01:06:41.581
01:09:20.823 : en:01:09:20.823
01:14:47.775 : en:01:14:47.775
01:18:47.681 : en:01:18:47.681
01:23:50.442 : en:01:23:50.442
01:28:10.202 : en:01:28:10.202
01:33:15.757 : en:01:33:15.757
01:39:10.945 : en:01:39:10.945



Screenshots

The Dead Don't Die (2019)

The Dead Don't Die (2019)

The Dead Don't Die (2019)