ZED - The Destiny of Rome: Series 1 (2011)

Posted By: notbanned
ZED - The Destiny of Rome: Series 1 (2011)

ZED - The Destiny of Rome: Series 1 (2011)
HDTV | 1280x578 | .MP4/AVC @ 2950 Kbps | 2x~51min | 2.25 GiB
Audio: English AAC 160 kbps, 2 channels | Subs: English
Genre: Documentary

Docu Drama, Filmed entirely using CGI, the series stays as close as possible to historical reality, with characters speaking in Latin and Greek. The Destiny of Rome takes us to the heart of Ancient Rome with its civil wars, and traces the careers of two exceptional leaders: Marc Antony and Octavian. From the assassination of Julius Caesar to Octavian’s triumph over Antony and Cleopatra, this legendary story is told through these two spectacular battles.
Part 1: Avenging Caesar
Marc Antony and Octavian were part of the triumvirate seeking to avenge Caesar. The two leaders managed to combine their forces to punish Brutus and Cassius, Caesar’s assassins, following the Battle of Philippi in 42 BC. But how would the ambitions of the two men collide as time went on?

Part 2: Octavian, Antony and Cleopatra
After Caesar, Antony and Octavian divided the empire for a time. But there could only be one successor to Caesar. Ten years later, the supreme strategist Octavian waged a critical naval battle, the Battle of Actium, against his former ally, Antony, who now had the backing of Cleopatra.


General
Complete name : The.Destiny.of.Rome.Series.1.1of2.Avenging.Caesar.720p.mp4
Format : MPEG-4
Format profile : Base Media
Codec ID : isom (isom)
File size : 1.13 GiB
Duration : 51 min 56 s
Overall bit rate mode : Variable
Overall bit rate : 3 117 kb/s

Video
ID : 1
Format : AVC
Format/Info : Advanced Video Codec
Format profile : High@L4.1
Format settings, CABAC : Yes
Format settings, ReFrames : 4 frames
Codec ID : avc1
Codec ID/Info : Advanced Video Coding
Duration : 51 min 56 s
Bit rate : 2 950 kb/s
Maximum bit rate : 12.8 Mb/s
Width : 1 280 pixels
Height : 578 pixels
Display aspect ratio : 2.2:1
Frame rate mode : Constant
Frame rate : 29.970 (30000/1001) FPS
Color space : YUV
Chroma subsampling : 4:2:0
Bit depth : 8 bits
Scan type : Progressive
Bits/(Pixel*Frame) : 0.133
Stream size : 1.07 GiB (95%)
Encoding settings : cabac=1 / ref=1 / deblock=1:0:0 / analyse=0x3:0x113 / me=hex / subme=2 / psy=1 / psy_rd=1.00:0.00 / mixed_ref=0 / me_range=16 / chroma_me=1 / trellis=0 / 8x8dct=1 / cqm=0 / deadzone=21,11 / fast_pskip=1 / chroma_qp_offset=0 / threads=6 / lookahead_threads=2 / sliced_threads=0 / nr=0 / decimate=1 / interlaced=0 / bluray_compat=0 / constrained_intra=0 / bframes=3 / b_pyramid=2 / b_adapt=1 / b_bias=0 / direct=1 / weightb=1 / open_gop=0 / weightp=1 / keyint=300 / keyint_min=30 / scenecut=40 / intra_refresh=0 / rc_lookahead=10 / rc=abr / mbtree=1 / bitrate=2950 / ratetol=1.0 / qcomp=0.60 / qpmin=0 / qpmax=69 / qpstep=4 / vbv_maxrate=62500 / vbv_bufsize=78125 / nal_hrd=none / ip_ratio=1.40 / aq=1:1.00
Encoded date : UTC 2017-10-22 10:51:51
Tagged date : UTC 2017-10-22 12:07:12
Color range : Limited
Color primaries : BT.709
Transfer characteristics : BT.709
Matrix coefficients : BT.709

Audio
ID : 2
Format : AAC
Format/Info : Advanced Audio Codec
Format profile : LC
Codec ID : 40
Duration : 51 min 56 s
Bit rate mode : Variable
Bit rate : 160 kb/s
Maximum bit rate : 220 kb/s
Channel(s) : 2 channels
Channel positions : Front: L R
Sampling rate : 44.1 kHz
Frame rate : 43.066 FPS (1024 spf)
Compression mode : Lossy
Stream size : 59.4 MiB (5%)
Encoded date : UTC 2017-10-22 12:07:08
Tagged date : UTC 2017-10-22 12:07:12

Text
ID : 3
Format : Timed Text
Codec ID : tx3g
Duration : 51 min 9 s
Bit rate mode : Variable
Bit rate : 37 b/s
Stream size : 13.8 KiB (0%)
Forced : No
Encoded date : UTC 2017-10-22 12:07:12
Tagged date : UTC 2017-10-22 12:07:12


Screenshots:

ZED - The Destiny of Rome: Series 1 (2011)

ZED - The Destiny of Rome: Series 1 (2011)

ZED - The Destiny of Rome: Series 1 (2011)

ZED - The Destiny of Rome: Series 1 (2011)