Channel 4 - The Divided Union: American Civil War 1861-1865 (1987) [Repost]

Posted By: Tutorial
Channel 4 - The Divided Union: American Civil War 1861-1865 (1987) [Repost]

Channel 4 - The Divided Union: American Civil War 1861-1865 (1987)
DVDRip | 704 x 520 | .AVI/XviD @ 1758 Kbps | 5x~51mn | 3.88 GB
Audio: English AC-3 384 Kbps, 2 channels | Subs: None
Genre: Documentary, War, History

A powerful, exciting and comprehensive account of the American Civil War, with large-scale re-enactments of battles, superb contemporary photographs and haunting period music. The Divided Union is a gripping account of the bloodshed and horror of the American Civil War, the birth of democracy and the beginning of modern day America. Together with lavish infantry and calvalry battle re-enactments, the series includes a fascinating collection of photographs from the Civil War and from the twentieth century.
Related Documentaries:
Boritt Films - The Gettysburg Story (2015)
Discovery Channel - How the West Was Lost (1995)
TLC - War and Civilization (1997)
Fox News - Legends and Lies: The Real West (2015)

General
Complete name : Ch4.The.Divided.Union.American.Civil.War.1861.1865.1of5.Forward.to.Sumter.avi
Format : AVI
Format/Info : Audio Video Interleave
File size : 796 MiB
Duration : 51 min 39 s
Overall bit rate : 2 154 kb/s
Movie name : Ch4.Divided.Union.1of5.Forward.To.Sumter.
Writing application : VirtualDubMod 1.5.10.2 (build 2542/release)
Writing library : VirtualDubMod build 2542/release

Video
ID : 0
Format : MPEG-4 Visual
Format profile : Advanced Simple@L5
Format settings, BVOP : 1
Format settings, QPel : Yes
Format settings, GMC : No warppoints
Format settings, Matrix : Custom
Codec ID : XVID
Codec ID/Hint : XviD
Duration : 51 min 39 s
Bit rate : 1 758 kb/s
Width : 704 pixels
Height : 520 pixels
Display aspect ratio : 4:3
Frame rate : 29.970 (30000/1001) FPS
Color space : YUV
Chroma subsampling : 4:2:0
Bit depth : 8 bits
Scan type : Progressive
Compression mode : Lossy
Bits/(Pixel*Frame) : 0.160
Stream size : 649 MiB (82%)
Writing library : XviD 1.2.1 (UTC 2008-12-04)

Audio
ID : 1
Format : AC-3
Format/Info : Audio Coding 3
Format settings, Endianness : Big
Codec ID : 2000
Duration : 51 min 38 s
Bit rate mode : Constant
Bit rate : 384 kb/s
Channel(s) : 2 channels
Channel positions : Front: L R
Sampling rate : 48.0 kHz
Frame rate : 31.250 FPS (1536 spf)
Bit depth : 16 bits
Compression mode : Lossy
Stream size : 142 MiB (18%)
Alignment : Split accross interleaves
Interleave, duration : 33 ms (1.00 video frame)
Interleave, preload duration : 500 ms
Service kind : Complete Main
Screenshots

Channel 4 - The Divided Union: American Civil War 1861-1865 (1987) [Repost]

Channel 4 - The Divided Union: American Civil War 1861-1865 (1987) [Repost]

Channel 4 - The Divided Union: American Civil War 1861-1865 (1987) [Repost]

Channel 4 - The Divided Union: American Civil War 1861-1865 (1987) [Repost]

Channel 4 - The Divided Union: American Civil War 1861-1865 (1987) [Repost]

Welcome to my blog - daily update!

Channel 4 - The Divided Union: American Civil War 1861-1865 (1987) [Repost]