BBC - The Eichmann Show Documentary (2015)

Posted By: Tutorial
1080p (FullHD) / HDTV
BBC - The Eichmann Show Documentary (2015)

BBC - The Eichmann Show Documentary (2015)
HDTV | 1920 x 1080 | .MKV/AVC @ 5960 Kbps | 29 min 6 s | 1.25 GB
Audio: English AC-3 192 Kbps, 2 channels | Subs: English
Genre: Documentary, History

The inside story of the Eichmann Trial. The elusive figure in the dock, the horrific experiences of inmates of the extermination camps, the meaning and importance of the recording and broadcast of events around the world and how the event was both a show trial for Israel and Eichmann himself. Here was a key moment in the history of the Holocaust and our understanding of it. The series features extracts from The Eichmann Show, a major dramatisation of the trial and its broadcast, starring actors Martin Freeman, Anthony LaPaglia and Rebecca Front.

also You can find my last: History-posts

General
Unique ID : 251941672865039542797771422166492149831 (0xBD8A3381E849EB82B91EFFF675B47847)
Complete name : BBC.The.Eichmann.Show.Documentary.mkv
Format : Matroska
Format version : Version 4 / Version 2
File size : 1.25 GiB
Duration : 29 min 6 s
Overall bit rate : 6 154 kb/s
Encoded date : UTC 2017-04-25 17:00:51
Writing application : mkvmerge v11.0.0 ('Alive') 64bit
Writing library : libebml v1.3.4 + libmatroska v1.4.5

Video
ID : 1
Format : AVC
Format/Info : Advanced Video Codec
Format profile : High@L4
Format settings, CABAC : Yes
Format settings, ReFrames : 4 frames
Codec ID : V_MPEG4/ISO/AVC
Duration : 29 min 6 s
Bit rate : 5 960 kb/s
Width : 1 920 pixels
Height : 1 080 pixels
Display aspect ratio : 16:9
Frame rate mode : Variable
Frame rate : 25.401 FPS
Original frame rate : 25.000 FPS
Standard : Component
Color space : YUV
Chroma subsampling : 4:2:0
Bit depth : 8 bits
Scan type : MBAFF
Scan type, store method : Interleaved fields
Scan order : Top Field First
Bits/(Pixel*Frame) : 0.113
Stream size : 1.21 GiB (97%)
Default : Yes
Forced : No
Color range : Limited
Color primaries : BT.709
Transfer characteristics : BT.709
Matrix coefficients : BT.709

Audio
ID : 2
Format : AC-3
Format/Info : Audio Coding 3
Format settings, Endianness : Big
Codec ID : A_AC3
Duration : 29 min 6 s
Bit rate mode : Constant
Bit rate : 192 kb/s
Channel(s) : 2 channels
Channel positions : Front: L R
Sampling rate : 48.0 kHz
Frame rate : 31.250 FPS (1536 spf)
Bit depth : 16 bits
Compression mode : Lossy
Stream size : 40.0 MiB (3%)
Language : English
Service kind : Complete Main
Default : Yes
Forced : No

Text
ID : 3
Format : UTF-8
Codec ID : S_TEXT/UTF8
Codec ID/Info : UTF-8 Plain Text
Duration : 28 min 56 s
Bit rate : 97 b/s
Count of elements : 466
Stream size : 20.7 KiB (0%)
Language : English
Default : Yes
Forced : No
Screenshots

BBC - The Eichmann Show Documentary (2015)

BBC - The Eichmann Show Documentary (2015)

BBC - The Eichmann Show Documentary (2015)

Welcome to my blog - daily update!

BBC - The Eichmann Show Documentary (2015)