Tags
Language
Tags

Filmoteca Española - The Filmed War (1936-1939)

Posted By: notbanned
SD / DVDRip
Filmoteca Española - The Filmed War (1936-1939)

Filmoteca Española - The Filmed War (1936-1939)
DVDRip | 720x576 | .MP4/AVC @ 2008 Kbps | 4x~54min | 3.59 GiB
Audio: Español AAC 160 kbps, 2 channels; English AAC 160 kbps, 2 channels | Subs: English, Français, Español
Genre: Documentary

The series contains 37 films and documentaries on the Spanish Civil War from the archives of the Filmoteca Española.

TVE broadcasters in Spain, in association with the Spanish Filmoteca has prepared a documental series in eight chapters (each of 55 minutes) with unpublished records of the Civil War that devastated the country between 1936 and 1939.

With such a wealth of material and research as rigorous, the production decided to respect the sources of information: the documentaries made at the time by both sides in the war - the republican regime and the group from the Spanish army that supported future dictator Francisco Franco - and the presentation classes by university professor of contemporary history, Julián Casanova, of the University of Zaragoza.

The series is the literal record of the presentations by the professor with audiovisual insertion, almost always from the original editing of the reels of film never before made public.

There are eight themes:
La República en Guerra: Includes three documentaries among these España, 1936, also known as España Leal en Armas, produced by the Propaganda Secretariat of the Government of the Republic, directed by Jean-Paul Le Chanois with production, selection of material, and script by filmmaker Luís Buñuel.
The film supports republican legality, intended for diffusion abroad. It starts with the downfall of the monarchy, shows images of the years of the republic and ends with the battle of Madrid, with the commentator crying out: "When will this monstrous war ever end?"

La España Sublevada: Is shown as a single documentary of 51 minutes edited from the original 77, a Hispanic-Germanic co-production entitled La España Heróica - Estampas de la Guerra Civil Española, that shows how the rebel military groups arose and the political forces that supported them.
The first 26 minutes that consisted only of a historical introduction, were cut out. General Franco is already one of the outstanding protagonists in the action.

Rebelión Militar y Revolución Social: In the cities in which the military uprising did not succeed, a sudden, violent revolutionary process began with intent to destroy the positions of the privileged groups.
The three documentaries of this segment summarize the power of propaganda of the anarchists in Catalunha during the first months of the war and, also, the two faces of the revolution - destructive violence and an egalitarian dream. In the words of George Orwell who was witness to the facts: "This was the first time in which I was in a city where the labor class were in power."

La Defensa de Madrid: The capital of the country was the stage for the first great battle in the Civil War. Franco conquered the capital with an army from Africa and squads of German and Italian planes.
The documentaries selected here reflect the communist and Soviet presence.
The first two were produced by Socorro Rojo Internacional and by the Alliance of Anti-Fascist Intellectuals; in the second, actor Rafael Alberti recites "Madrid, Corazón de España". Two other records are Soviet film news and, finally, there is a short film showing the advance of Franco's troops in the autumn of 1936.

Campos de Batalla y Políticas de Retaguardia: In this chapter, seven documentaries were selected that record the development of the war and of politics on two ideological fronts.
In one of these, there are explicit scenes of anarchist fronts and rearguards with a strong and surprising presence of Catholic values. And "La Toma de Teruel" shows the brief moment in which the republicans managed to gain access to the city of Teruel, the only capital of a province they held during the war, even if for only a short time; “Teruel Há Caído” shows the celebrations in Barcelona by the Franco re-capture of the city.

Una Guerra Internacional: The Spanish Civil War that began with a military uprising that was exclusively internal, became a conflict with international repercussion.
There are eight documentaries. In the first three, the protagonists are prisoners from both sides, used as traditional pieces for propaganda. The other short films include abundant evidence of fascist and Soviet intervention.
One British short film is outstanding on the acts of farewell to international brigades in the autumn of 1938.

Resistir, Vencer: Hacia el Final de la Guerra: The war was coming to an end and the president of the republic, Juan Negrin, tries to negotiate a solution with Franco who refuses to lend support to peace between the parties.
The first of the three documentaries, the French "L'Espagne Vivra", shows a final attempt of resistance of the Spanish people in face of the fascism and danger that Franco represented, also, for France. The other films are pro-Franco and are from the Official Spanish News. It was February, 1939.

La Victoria: The war ended April 1st, 1939 with total triumph of Franco's army. The documentaries show the victory and immediate fusion between Catholicism and the notion of a Country and Homeland. On May 19, 1939, 120 thousand soldiers paraded before Franco in a political-military apotheosis. The Generalíssimo was awarded the Gran Cruz Laureada de San Fernando, the maximum decoration granted only to the king or "to whom, in his absence, is to exert executive power."

General
Complete name : The.Filmed.War.1of4.DVD.mp4
Format : MPEG-4
Format profile : Base Media / Version 2
Codec ID : mp42 (isom/iso2/avc1/mp41)
File size : 909 MiB
Duration : 54 min 13 s
Overall bit rate mode : Variable
Overall bit rate : 2 343 kb/s

Video
ID : 1
Format : AVC
Format/Info : Advanced Video Codec
Format profile : Main@L3.1
Format settings, CABAC : Yes
Format settings, ReFrames : 4 frames
Codec ID : avc1
Codec ID/Info : Advanced Video Coding
Duration : 54 min 13 s
Bit rate : 2 008 kb/s
Width : 720 pixels
Height : 576 pixels
Display aspect ratio : 4:3
Frame rate mode : Constant
Frame rate : 25.000 FPS
Standard : PAL
Color space : YUV
Chroma subsampling : 4:2:0
Bit depth : 8 bits
Scan type : Progressive
Bits/(Pixel*Frame) : 0.194
Stream size : 779 MiB (86%)
Writing library : x264 core 155 r2893 b00bcaf
Encoding settings : cabac=1 / ref=2 / deblock=1:0:0 / analyse=0x1:0x111 / me=hex / subme=6 / psy=1 / psy_rd=1.00:0.00 / mixed_ref=1 / me_range=16 / chroma_me=1 / trellis=1 / 8x8dct=0 / cqm=0 / deadzone=21,11 / fast_pskip=1 / chroma_qp_offset=-2 / threads=12 / lookahead_threads=2 / sliced_threads=0 / nr=0 / decimate=1 / interlaced=0 / bluray_compat=0 / constrained_intra=0 / bframes=3 / b_pyramid=2 / b_adapt=1 / b_bias=0 / direct=1 / weightb=1 / open_gop=0 / weightp=1 / keyint=250 / keyint_min=25 / scenecut=40 / intra_refresh=0 / rc_lookahead=30 / rc=crf / mbtree=1 / crf=22.0 / qcomp=0.60 / qpmin=0 / qpmax=69 / qpstep=4 / vbv_maxrate=14000 / vbv_bufsize=14000 / crf_max=0.0 / nal_hrd=none / filler=0 / ip_ratio=1.40 / aq=1:1.00
Encoded date : UTC 2019-07-18 09:32:55
Tagged date : UTC 2019-07-18 09:32:55
Color range : Limited
Color primaries : BT.601 PAL
Transfer characteristics : BT.709
Matrix coefficients : BT.601
Menus : 7

Audio #1
ID : 2
Format : AAC
Format/Info : Advanced Audio Codec
Format profile : LC
Codec ID : 40
Duration : 54 min 13 s
Bit rate mode : Variable
Bit rate : 160 kb/s
Channel(s) : 2 channels
Channel positions : Front: L R
Sampling rate : 48.0 kHz
Frame rate : 46.875 FPS (1024 spf)
Compression mode : Lossy
Stream size : 62.1 MiB (7%)
Title : Stereo / Stereo
Language : Spanish
Default : Yes
Alternate group : 1
Encoded date : UTC 2019-07-18 09:32:55
Tagged date : UTC 2019-07-18 09:32:55
Menus : 7

Audio #2
ID : 3
Format : AAC
Format/Info : Advanced Audio Codec
Format profile : LC
Codec ID : 40
Duration : 54 min 13 s
Bit rate mode : Variable
Bit rate : 160 kb/s
Channel(s) : 2 channels
Channel positions : Front: L R
Sampling rate : 48.0 kHz
Frame rate : 46.875 FPS (1024 spf)
Compression mode : Lossy
Stream size : 61.9 MiB (7%)
Title : Stereo / Stereo
Language : English
Default : No
Alternate group : 1
Encoded date : UTC 2019-07-18 09:32:55
Tagged date : UTC 2019-07-18 09:32:55
Menus : 7

Text #1
ID : 4
Format : mp4s
Codec ID : E0
Duration : 53 min 14 s
Bit rate mode : Variable
Bit rate : 2 582 b/s
Stream size : 1 007 KiB (0%)
Language : English
Default : Yes
Forced : No
Alternate group : 3
Encoded date : UTC 2019-07-18 09:32:55
Tagged date : UTC 2019-07-18 09:32:55
Menus : 7

Text #2
ID : 5
Format : mp4s
Codec ID : E0
Duration : 53 min 14 s
Bit rate mode : Variable
Bit rate : 1 547 b/s
Stream size : 603 KiB (0%)
Language : French
Default : No
Forced : No
Alternate group : 3
Encoded date : UTC 2019-07-18 09:32:55
Tagged date : UTC 2019-07-18 09:32:55
Menus : 7

Text #3
ID : 6
Format : mp4s
Codec ID : E0
Duration : 48 min 19 s
Bit rate mode : Variable
Bit rate : 2 177 b/s
Stream size : 771 KiB (0%)
Language : Spanish
Default : No
Forced : No
Alternate group : 3
Encoded date : UTC 2019-07-18 09:32:55
Tagged date : UTC 2019-07-18 09:32:55
Menus : 7

Menu
ID : 7
Codec ID : text
Duration : 54 min 13 s
Language : English
Encoded date : UTC 2019-07-18 09:32:55
Tagged date : UTC 2019-07-18 09:32:55
Bit rate mode : CBR
Menu For : 1,2,3,4,5,6
00:00:00.000 : Chapter 1
00:02:19.200 : Chapter 2
00:35:38.440 : Chapter 3
00:36:38.760 : Chapter 4
00:46:28.040 : Chapter 5
00:47:06.840 : Chapter 6
00:53:47.840 : Chapter 7


Screenshots:

Filmoteca Española - The Filmed War (1936-1939)

Filmoteca Española - The Filmed War (1936-1939)

Filmoteca Española - The Filmed War (1936-1939)

Filmoteca Española - The Filmed War (1936-1939)