Subcategories

BBC - The Inca: Masters of the Clouds (2015) [Repost]

Posted By: Tutorial
BBC - The Inca: Masters of the Clouds (2015) [Repost]

BBC - The Inca: Masters of the Clouds (2015) [Repost]
HDTV | 1280 x 720 | .MP4/AVC @ 3062 Kbps | 2x~58mn | 2.59 GB
Audio: English AAC 115 Kbps, 2 channels | Subs: English
Genre: Documentary, History

Dr Jago Cooper travels through Peru and Ecuador to reassess the origins, accomplishments and nature of one of the greatest empires the world has ever seen.
Part 1: Foundations
In the first of a two-part series, Dr Jago Cooper reassesses the achievements of the Inca Empire. He begins in Peru, where evidence is still being uncovered that challenges preconceptions about its origins and significance. Venturing from the coast to the clouds, he reveals how the Inca transformed one of the most challenging landscapes in the world to ward off the worst effects of the climate, and created sophisticated systems of communication. He shows how one of many independent societies became a commanding empire - not through force, but by using subtle methods of persuasion.

Part 2: Clash of Empires
In the concluding part, Dr Jago Cooper argues that it wasn't simply a clash of arms that destroyed the Inca, but a clash of world views. He travels from Peru to the far north of Inca territory in Ecuador to reveal how the great strengths of the empire suddenly became factors in its rapid demise. The Spanish conquest of the Inca destroyed one of the most remarkable empires in the world, yet the Inca legacy leaves a great deal for modern civilisations to learn from.

also You can find my last: History-posts

General
Complete name : BBC.The.Inca.Masters.Of.The.Clouds.1of2.Foundations.mp4
Format : MPEG-4
Format profile : Base Media
Codec ID : isom (isom)
File size : 1.31 GiB
Duration : 58 min 46 s
Overall bit rate mode : Variable
Overall bit rate : 3 180 kb/s
Encoded date : UTC 2015-01-16 21:37:23
Tagged date : UTC 2015-01-16 21:37:23
Writing application : My MP4Box GUI 0.6.0.0

Video
ID : 1
Format : AVC
Format/Info : Advanced Video Codec
Format profile : High@L4.1
Format settings, CABAC : No
Format settings, ReFrames : 1 frame
Format settings, GOP : M=1, N=12
Codec ID : avc1
Codec ID/Info : Advanced Video Coding
Duration : 58 min 46 s
Bit rate : 3 062 kb/s
Maximum bit rate : 10.8 Mb/s
Width : 1 280 pixels
Height : 720 pixels
Display aspect ratio : 16:9
Frame rate mode : Constant
Frame rate : 25.000 FPS
Color space : YUV
Chroma subsampling : 4:2:0
Bit depth : 8 bits
Scan type : Progressive
Bits/(Pixel*Frame) : 0.133
Stream size : 1.26 GiB (96%)
Title : BBC.The.Inca.Masters.Of.The.Clouds.1of2.Foundations.720p.HDTV.x264.AAC.
Encoded date : UTC 2015-01-16 18:32:36
Tagged date : UTC 2015-01-16 21:38:42

Audio
ID : 2
Format : AAC
Format/Info : Advanced Audio Codec
Format profile : LC
Codec ID : 40
Duration : 58 min 46 s
Bit rate mode : Variable
Bit rate : 115 kb/s
Maximum bit rate : 216 kb/s
Channel(s) : 2 channels
Channel positions : Front: L R
Sampling rate : 48.0 kHz
Frame rate : 46.875 FPS (1024 spf)
Compression mode : Lossy
Stream size : 48.3 MiB (4%)
Title : BBC.The.Inca.Masters.Of.The.Clouds.1of2.Foundations.720p.HDTV.x264.AAC
Language : English
Encoded date : UTC 2015-01-16 21:38:37
Tagged date : UTC 2015-01-16 21:38:42

Text
ID : 3
Format : Timed Text
Codec ID : tx3g
Duration : 58 min 18 s
Bit rate mode : Variable
Bit rate : 101 b/s
Stream size : 42.9 KiB (0%)
Title : BBC.The.Inca.Masters.Of.The.Clouds.1of2.Foundations.720p.HDTV.x264.AAC
Forced : No
Encoded date : UTC 2015-01-16 21:38:42
Tagged date : UTC 2015-01-16 21:38:42
Screenshots

BBC - The Inca: Masters of the Clouds (2015) [Repost]

BBC - The Inca: Masters of the Clouds (2015) [Repost]

BBC - The Inca: Masters of the Clouds (2015) [Repost]

Welcome to my blog - daily update!

BBC - The Inca: Masters of the Clouds (2015) [Repost]