The Matrix (1999) [4K, Ultra HD]

Posted By: Without
2160p (4k UHD) / BluRay Remux IMDb
The Matrix (1999) [4K, Ultra HD]

The Matrix (1999)
4K UHD Remux | MKV | 3840x2160 | HEVC@48.8 Mb/s | English TrueHD+Atmos@4420 kb/s Kbps (8 ch)
English AC3@448 Kbps (6 ch) | English AC3@192 Kbps (Commentary) (2 ch) | 2 h 16 min | 52.4 GB
Subs: English, Arabic, Chinese, Croatian, Czech, Danish, Finnish, German
Greek, Hungarian, Italian, Japanese, Korean, Norwegian, Polish, Portuguese
Romanian, Russian, Spanish, Swedish, Thai, Turkish
Genre: Action, Sci-Fi

A computer hacker learns from mysterious rebels about the true nature of his reality and his role in the war against its controllers.

IMDB - Top Rated Movies #19 | Won 4 Oscars. Another 37 wins & 49 nominations.


General
The.Matrix.1999.2160p.UHD.BluRay.REMUX.HDR.HEVC.Atmos-EPSiLON.mkv
Format : Matroska
Format version : Version 4 / Version 2
File size : 52.4 GiB
Duration : 2 h 16 min
Overall bit rate mode : Variable
Overall bit rate : 55.1 Mb/s
Encoded date : UTC 2018-05-22 04:58:03
Writing application : mkvmerge v23.0.0 ('The Bride Said No') 64-bit
Writing library : libebml v1.3.6 + libmatroska v1.4.9

Video
ID : 1
Format : HEVC
Format/Info : High Efficiency Video Coding
Commercial name : HDR10
Format profile : Main 10@L5.1@High
Codec ID : V_MPEGH/ISO/HEVC
Duration : 2 h 16 min
Bit rate : 48.8 Mb/s
Width : 3 840 pixels
Height : 2 160 pixels
Display aspect ratio : 16:9
Frame rate mode : Constant
Frame rate : 23.976 (24000/1001) FPS
Color space : YUV
Chroma subsampling : 4:2:0 (Type 2)
Bit depth : 10 bits
Bits/(Pixel*Frame) : 0.246
Stream size : 46.5 GiB (89%)
Title : MPEG-H HEVC Video / 48844 kbps / 2160p / 23.976 fps / 16:9 / Main 10 Profile 5.1 High / 4:2:0 / 10 bits / HDR / BT.2020
Language : English
Default : Yes
Forced : No
Color range : Limited
Color primaries : BT.2020
Transfer characteristics : PQ
Matrix coefficients : BT.2020 non-constant
Mastering display color primaries : BT.709
Mastering display luminance : min: 0.0020 cd/m2, max: 1000 cd/m2
Maximum Content Light Level : 992 cd/m2
Maximum Frame-Average Light Level : 518 cd/m2

Audio #1
ID : 2
Format : TrueHD
Format profile : TrueHD+Atmos / TrueHD
Codec ID : A_TRUEHD
Duration : 2 h 16 min
Bit rate mode : Variable
Bit rate : 4 420 kb/s
Maximum bit rate : 7 794 kb/s
Channel(s) : Object Based / 8 channels
Channel positions : Object Based / Front: L C R, Side: L R, Back: L R, LFE
Sampling rate : / 48.0 kHz
Frame rate : 1 200.000 FPS (40 SPF)
Compression mode : Lossless
Stream size : 4.21 GiB (8%)
Title : Dolby Atmos/TrueHD Audio / 7.1-Atmos / 48 kHz / 4868 kbps / 24-bit
Language : English
Default : Yes
Forced : No

Audio #2
ID : 3
Format : AC-3
Format/Info : Audio Coding 3
Codec ID : A_AC3
Duration : 2 h 16 min
Bit rate mode : Constant
Bit rate : 448 kb/s
Channel(s) : 6 channels
Channel positions : Front: L C R, Side: L R, LFE
Sampling rate : 48.0 kHz
Frame rate : 31.250 FPS (1536 SPF)
Bit depth : 16 bits
Compression mode : Lossy
Stream size : 437 MiB (1%)
Title : Compatibility Track / Dolby Digital Audio / 5.1-EX / 48 kHz / 448 kbps
Language : English
Service kind : Complete Main
Default : No
Forced : No

Audio #3
ID : 4
Format : AC-3
Format/Info : Audio Coding 3
Codec ID : A_AC3
Duration : 2 h 16 min
Bit rate mode : Constant
Bit rate : 192 kb/s
Channel(s) : 2 channels
Channel positions : Front: L R
Sampling rate : 48.0 kHz
Frame rate : 31.250 FPS (1536 SPF)
Bit depth : 16 bits
Compression mode : Lossy
Stream size : 187 MiB (0%)
Title : Philosopher commentary by Dr. Cornel West and Ken Wilber
Language : English
Service kind : Complete Main
Default : No
Forced : No

Audio #4
ID : 5
Format : AC-3
Format/Info : Audio Coding 3
Codec ID : A_AC3
Duration : 2 h 16 min
Bit rate mode : Constant
Bit rate : 192 kb/s
Channel(s) : 2 channels
Channel positions : Front: L R
Sampling rate : 48.0 kHz
Frame rate : 31.250 FPS (1536 SPF)
Bit depth : 16 bits
Compression mode : Lossy
Stream size : 187 MiB (0%)
Title : Critics' commentary by Todd McCarthy, John Powers and David Thomson
Language : English
Service kind : Complete Main
Default : No
Forced : No

Audio #5
ID : 6
Format : AC-3
Format/Info : Audio Coding 3
Codec ID : A_AC3
Duration : 2 h 16 min
Bit rate mode : Constant
Bit rate : 192 kb/s
Channel(s) : 2 channels
Channel positions : Front: L R
Sampling rate : 48.0 kHz
Frame rate : 31.250 FPS (1536 SPF)
Bit depth : 16 bits
Compression mode : Lossy
Stream size : 187 MiB (0%)
Title : Commentary by actor Carrie-Anne Moss, film editor Zach Staenberg and VFX supervisor John Gaeta
Language : English
Service kind : Complete Main
Default : No
Forced : No

Audio #6
ID : 7
Format : AC-3
Format/Info : Audio Coding 3
Codec ID : A_AC3
Duration : 2 h 16 min
Bit rate mode : Constant
Bit rate : 192 kb/s
Channel(s) : 2 channels
Channel positions : Front: L R
Sampling rate : 48.0 kHz
Frame rate : 31.250 FPS (1536 SPF)
Bit depth : 16 bits
Compression mode : Lossy
Stream size : 187 MiB (0%)
Title : Composer commentary by Don Davis and Music-Only Track
Language : English
Service kind : Complete Main
Default : No
Forced : No

Text #1
ID : 8
Format : PGS
Codec ID : S_HDMV/PGS
Codec ID/Info : Picture based subtitle format used on BDs/HD-DVDs
Duration : 2 h 15 min
Bit rate : 21.3 kb/s
Count of elements : 2746
Stream size : 20.6 MiB (0%)
Title : SDH
Language : English
Default : No
Forced : No

Text #2
ID : 9
Format : PGS
Codec ID : S_HDMV/PGS
Codec ID/Info : Picture based subtitle format used on BDs/HD-DVDs
Duration : 2 h 15 min
Bit rate : 10.3 kb/s
Count of elements : 2764
Stream size : 9.95 MiB (0%)
Language : Arabic
Default : No
Forced : No

Text #3
ID : 10
Format : PGS
Codec ID : S_HDMV/PGS
Codec ID/Info : Picture based subtitle format used on BDs/HD-DVDs
Duration : 2 h 15 min
Bit rate : 17.2 kb/s
Count of elements : 2620
Stream size : 16.7 MiB (0%)
Title : Mandarin Traditional
Language : Chinese
Default : No
Forced : No

Text #4
ID : 11
Format : PGS
Codec ID : S_HDMV/PGS
Codec ID/Info : Picture based subtitle format used on BDs/HD-DVDs
Duration : 2 h 15 min
Bit rate : 18.7 kb/s
Count of elements : 2774
Stream size : 18.1 MiB (0%)
Language : Croatian
Default : No
Forced : No

Text #5
ID : 12
Format : PGS
Codec ID : S_HDMV/PGS
Codec ID/Info : Picture based subtitle format used on BDs/HD-DVDs
Duration : 2 h 15 min
Bit rate : 16.6 kb/s
Count of elements : 2730
Stream size : 16.0 MiB (0%)
Language : Czech
Default : No
Forced : No

Text #6
ID : 13
Format : PGS
Codec ID : S_HDMV/PGS
Codec ID/Info : Picture based subtitle format used on BDs/HD-DVDs
Duration : 2 h 15 min
Bit rate : 18.6 kb/s
Count of elements : 1844
Stream size : 18.0 MiB (0%)
Language : Danish
Default : No
Forced : No

Text #7
ID : 14
Format : PGS
Codec ID : S_HDMV/PGS
Codec ID/Info : Picture based subtitle format used on BDs/HD-DVDs
Duration : 2 h 15 min
Bit rate : 18.1 kb/s
Count of elements : 1658
Stream size : 17.6 MiB (0%)
Language : Finnish
Default : No
Forced : No

Text #8
ID : 15
Format : PGS
Codec ID : S_HDMV/PGS
Codec ID/Info : Picture based subtitle format used on BDs/HD-DVDs
Duration : 2 h 15 min
Bit rate : 22.3 kb/s
Count of elements : 2844
Stream size : 21.6 MiB (0%)
Language : German
Default : No
Forced : No

Text #9
ID : 16
Format : PGS
Codec ID : S_HDMV/PGS
Codec ID/Info : Picture based subtitle format used on BDs/HD-DVDs
Duration : 2 h 15 min
Bit rate : 19.2 kb/s
Count of elements : 2382
Stream size : 18.6 MiB (0%)
Language : Greek
Default : No
Forced : No

Text #10
ID : 17
Format : PGS
Codec ID : S_HDMV/PGS
Codec ID/Info : Picture based subtitle format used on BDs/HD-DVDs
Duration : 2 h 15 min
Bit rate : 18.2 kb/s
Count of elements : 2774
Stream size : 17.7 MiB (0%)
Language : Hungarian
Default : No
Forced : No

Text #11
ID : 18
Format : PGS
Codec ID : S_HDMV/PGS
Codec ID/Info : Picture based subtitle format used on BDs/HD-DVDs
Duration : 2 h 15 min
Bit rate : 20.6 kb/s
Count of elements : 2702
Stream size : 20.0 MiB (0%)
Language : Italian
Default : No
Forced : No

Text #12
ID : 19
Format : PGS
Codec ID : S_HDMV/PGS
Codec ID/Info : Picture based subtitle format used on BDs/HD-DVDs
Duration : 2 h 7 min
Bit rate : 17.7 kb/s
Count of elements : 2477
Stream size : 16.2 MiB (0%)
Language : Japanese
Default : No
Forced : No

Text #13
ID : 20
Format : PGS
Codec ID : S_HDMV/PGS
Codec ID/Info : Picture based subtitle format used on BDs/HD-DVDs
Duration : 2 h 15 min
Bit rate : 14.1 kb/s
Count of elements : 2600
Stream size : 13.7 MiB (0%)
Language : Korean
Default : No
Forced : No

Text #14
ID : 21
Format : PGS
Codec ID : S_HDMV/PGS
Codec ID/Info : Picture based subtitle format used on BDs/HD-DVDs
Duration : 2 h 15 min
Bit rate : 20.0 kb/s
Count of elements : 1984
Stream size : 19.3 MiB (0%)
Language : Norwegian
Default : No
Forced : No

Text #15
ID : 22
Format : PGS
Codec ID : S_HDMV/PGS
Codec ID/Info : Picture based subtitle format used on BDs/HD-DVDs
Duration : 2 h 15 min
Bit rate : 16.1 kb/s
Count of elements : 2770
Stream size : 15.6 MiB (0%)
Language : Polish
Default : No
Forced : No

Text #16
ID : 23
Format : PGS
Codec ID : S_HDMV/PGS
Codec ID/Info : Picture based subtitle format used on BDs/HD-DVDs
Duration : 2 h 15 min
Bit rate : 20.5 kb/s
Count of elements : 2606
Stream size : 19.9 MiB (0%)
Title : Brazilian
Language : Portuguese
Default : No
Forced : No

Text #17
ID : 24
Format : PGS
Codec ID : S_HDMV/PGS
Codec ID/Info : Picture based subtitle format used on BDs/HD-DVDs
Duration : 2 h 15 min
Bit rate : 21.7 kb/s
Count of elements : 2644
Stream size : 21.1 MiB (0%)
Title : Iberian
Language : Portuguese
Default : No
Forced : No

Text #18
ID : 25
Format : PGS
Codec ID : S_HDMV/PGS
Codec ID/Info : Picture based subtitle format used on BDs/HD-DVDs
Duration : 2 h 15 min
Bit rate : 18.3 kb/s
Count of elements : 2736
Stream size : 17.7 MiB (0%)
Language : Romanian
Default : No
Forced : No

Text #19
ID : 26
Format : PGS
Codec ID : S_HDMV/PGS
Codec ID/Info : Picture based subtitle format used on BDs/HD-DVDs
Duration : 2 h 15 min
Bit rate : 20.6 kb/s
Count of elements : 2734
Stream size : 20.0 MiB (0%)
Language : Russian
Default : No
Forced : No

Text #20
ID : 27
Format : PGS
Codec ID : S_HDMV/PGS
Codec ID/Info : Picture based subtitle format used on BDs/HD-DVDs
Duration : 2 h 15 min
Bit rate : 18.9 kb/s
Count of elements : 2660
Stream size : 18.4 MiB (0%)
Title : Castilian
Language : Spanish
Default : No
Forced : No

Text #21
ID : 28
Format : PGS
Codec ID : S_HDMV/PGS
Codec ID/Info : Picture based subtitle format used on BDs/HD-DVDs
Duration : 2 h 15 min
Bit rate : 17.7 kb/s
Count of elements : 1740
Stream size : 17.2 MiB (0%)
Language : Swedish
Default : No
Forced : No

Text #22
ID : 29
Format : PGS
Codec ID : S_HDMV/PGS
Codec ID/Info : Picture based subtitle format used on BDs/HD-DVDs
Duration : 2 h 15 min
Bit rate : 20.5 kb/s
Count of elements : 2604
Stream size : 19.9 MiB (0%)
Language : Thai
Default : No
Forced : No

Text #23
ID : 30
Format : PGS
Codec ID : S_HDMV/PGS
Codec ID/Info : Picture based subtitle format used on BDs/HD-DVDs
Duration : 2 h 15 min
Bit rate : 19.4 kb/s
Count of elements : 2730
Stream size : 18.8 MiB (0%)
Language : Turkish
Default : No
Forced : No

Text #24
ID : 31
Format : PGS
Codec ID : S_HDMV/PGS
Codec ID/Info : Picture based subtitle format used on BDs/HD-DVDs
Duration : 2 h 11 min
Bit rate : 34.7 kb/s
Count of elements : 3379
Stream size : 32.8 MiB (0%)
Title : Philosopher commentary by Dr. Cornel West and Ken Wilber
Language : Japanese
Default : No
Forced : No

Text #25
ID : 32
Format : PGS
Codec ID : S_HDMV/PGS
Codec ID/Info : Picture based subtitle format used on BDs/HD-DVDs
Duration : 2 h 12 min
Bit rate : 31.6 kb/s
Count of elements : 3517
Stream size : 29.9 MiB (0%)
Title : Critics' commentary by Todd McCarthy, John Powers and David Thomson
Language : Japanese
Default : No
Forced : No

Text #26
ID : 33
Format : PGS
Codec ID : S_HDMV/PGS
Codec ID/Info : Picture based subtitle format used on BDs/HD-DVDs
Duration : 2 h 9 min
Bit rate : 34.0 kb/s
Count of elements : 3522
Stream size : 31.5 MiB (0%)
Title : Commentary by actor Carrie-Anne Moss, film editor Zach Staenberg and VFX supervisor John Gaeta
Language : Japanese
Default : No
Forced : No

Text #27
ID : 34
Format : PGS
Codec ID : S_HDMV/PGS
Codec ID/Info : Picture based subtitle format used on BDs/HD-DVDs
Duration : 2 h 15 min
Bit rate : 8 507 b/s
Count of elements : 858
Stream size : 8.24 MiB (0%)
Title : Composer commentary by Don Davis and Music-Only Track
Language : Japanese
Default : No
Forced : No

Menu
00:00:00.000 : en:Trinity in a Jam
00:03:25.788 : en:Impossible Pursuit
00:06:35.645 : en:Follow Instructions
00:09:42.665 : en:The Question
00:11:58.300 : en:"They're Coming for You"
00:16:47.423 : en:Unable to Speak
00:21:33.542 : en:Getting the Bug Out
00:25:08.590 : en:Morpheus' Proposal
00:28:51.146 : en:Down the Rabbit Hole
00:32:25.193 : en:Slimy Rebirth
00:35:21.869 : en:Nebuchadnezzar's Crew
00:38:40.901 : en:The Real World
00:44:22.576 : en:The Search Is Over
00:46:33.540 : en:Training Begins
00:48:57.851 : en:Morpheus/Neo Matchup
00:53:31.291 : en:First Jump
00:56:32.138 : en:The Gatekeepers
00:59:01.287 : en:Running Silent and Deep
01:01:08.581 : en:Dealing for Bliss
01:05:16.495 : en:Off to See the Oracle
01:07:46.812 : en:There Is No Spoon
01:12:33.432 : en:Choices…and a Cookie
01:17:49.581 : en:Glitch in the Matrix
01:21:03.108 : en:One Left Behide
01:25:05.350 : en:Heroes Unplugged
01:29:45.129 : en:Cypher's Burnout
01:31:27.565 : en:Matters of Belief
01:37:25.256 : en:Virus to Be Cured
01:41:04.975 : en:Lobby Shooting Spree
01:44:20.337 : en:Dodge This
01:47:00.497 : en:Gotcha
01:50:18.528 : en:Rooftop Rescue
01:52:56.686 : en:Subway Showdown
01:56:36.906 : en:"My Name Is Neo"
01:58:49.372 : en:Sentinels Attack
02:02:27.423 : en:"He Is the One"
02:05:41.784 : en:Final Connections
02:08:46.802 : en:End Credits ("Wake Up Rock Is Dead")


Screenshots

The Matrix (1999) [4K, Ultra HD]

The Matrix (1999) [4K, Ultra HD]

The Matrix (1999) [4K, Ultra HD]

The Matrix (1999) [4K, Ultra HD]

The Matrix (1999) [4K, Ultra HD]

The Matrix (1999) [4K, Ultra HD]

The Matrix (1999) [4K, Ultra HD]

The Matrix (1999) [4K, Ultra HD]

The Matrix (1999) [4K, Ultra HD]


Come Visit My Blog (•‿•)