The Monkey King 3: Kingdom Of Women / Xi you ji zhi nü er guo (2018)

Posted By: Without
1080p (FullHD) / BDRip IMDb
The Monkey King 3: Kingdom Of Women / Xi you ji zhi nü er guo (2018)

The Monkey King 3: Kingdom Of Women / Xi you ji zhi nü er guo (2018)
BDRip 1080p | MKV | 1920x1012 | AVC@9718 kb/s | Chinese (Mandarin & Cantonese) AC3@640 kb/s
Subs: English, Chinese | 6 channels | 1 h 54 min | 8.78 GB
Genre: Action, Adventure, Fantasy

A travelling monk and his followers find themselves trapped in a land inhabited by only women.



General
The.Monkey.King.3.Kingdom.of.Women.2018.BluRay.1080p.DD5.1.2Audio.x264-CHD.mkv
Format : Matroska
Format version : Version 4 / Version 2
File size : 8.78 GiB
Duration : 1 h 54 min
Overall bit rate : 11.0 Mb/s
Movie name : Today @ CHD
Encoded date : UTC 2018-05-22 02:01:32
Writing application : mkvmerge v23.0.0 ('The Bride Said No') 64-bit
Writing library : libebml v1.3.6 + libmatroska v1.4.9

Video
ID : 1
Format : AVC
Format/Info : Advanced Video Codec
Format profile : High@L4.1
Format settings : CABAC / 4 Ref Frames
Format settings, CABAC : Yes
Format settings, RefFrames : 4 frames
Codec ID : V_MPEG4/ISO/AVC
Duration : 1 h 54 min
Bit rate : 9 718 kb/s
Width : 1 920 pixels
Height : 1 012 pixels
Display aspect ratio : 1.897
Frame rate mode : Constant
Frame rate : 23.976 (24000/1001) FPS
Color space : YUV
Chroma subsampling : 4:2:0
Bit depth : 8 bits
Scan type : Progressive
Bits/(Pixel*Frame) : 0.209
Stream size : 7.74 GiB (88%)
Writing library : x264 core 155 r2867+74 66b5600 t_mod_Custom_2 [8-bit@all X86_64]
Encoding settings : cabac=1 / ref=4 / deblock=1:-1:-1 / analyse=0x3:0x133 / me=umh / subme=11 / psy=0 / mixed_ref=1 / me_range=36 / chroma_me=1 / trellis=2 / 8x8dct=1 / cqm=0 / deadzone=21,11 / fast_pskip=0 / chroma_qp_offset=0 / threads=8 / lookahead_threads=1 / sliced_threads=0 / nr=0 / decimate=1 / interlaced=0 / bluray_compat=0 / constrained_intra=0 / fgo=0 / bframes=9 / b_pyramid=2 / b_adapt=2 / b_bias=0 / direct=3 / weightb=1 / open_gop=0 / weightp=2 / keyint=240 / keyint_min=1 / scenecut=40 / intra_refresh=0 / rc=crf / mbtree=0 / crf=18.5000 / qcomp=0.70 / qpmin=0:0:0 / qpmax=69:69:69 / qpstep=4 / ip_ratio=1.40 / pb_ratio=1.30 / aq=3:0.90 / aq-sensitivity=10.00 / aq-factor=1.00:1.00:1.00 / aq2=0 / aq3=0
Language : English
Default : Yes
Forced : No

Audio #1
ID : 2
Format : AC-3
Format/Info : Audio Coding 3
Codec ID : A_AC3
Duration : 1 h 54 min
Bit rate mode : Constant
Bit rate : 640 kb/s
Channel(s) : 6 channels
Channel positions : Front: L C R, Side: L R, LFE
Sampling rate : 48.0 kHz
Frame rate : 31.250 FPS (1536 SPF)
Bit depth : 16 bits
Compression mode : Lossy
Stream size : 522 MiB (6%)
Title : Mandarin
Language : Chinese
Service kind : Complete Main
Default : No
Forced : No

Audio #2
ID : 3
Format : AC-3
Format/Info : Audio Coding 3
Codec ID : A_AC3
Duration : 1 h 54 min
Bit rate mode : Constant
Bit rate : 640 kb/s
Channel(s) : 6 channels
Channel positions : Front: L C R, Side: L R, LFE
Sampling rate : 48.0 kHz
Frame rate : 31.250 FPS (1536 SPF)
Bit depth : 16 bits
Compression mode : Lossy
Stream size : 522 MiB (6%)
Title : Cantonese
Language : Chinese
Service kind : Complete Main
Default : No
Forced : No

Text #1
ID : 4
Format : PGS
Muxing mode : zlib
Codec ID : S_HDMV/PGS
Codec ID/Info : Picture based subtitle format used on BDs/HD-DVDs
Duration : 1 h 48 min
Bit rate : 15.4 kb/s
Count of elements : 2323
Stream size : 11.9 MiB (0%)
Title : Chs
Language : Chinese
Default : No
Forced : No

Text #2
ID : 5
Format : PGS
Muxing mode : zlib
Codec ID : S_HDMV/PGS
Codec ID/Info : Picture based subtitle format used on BDs/HD-DVDs
Duration : 1 h 48 min
Bit rate : 16.5 kb/s
Count of elements : 2323
Stream size : 12.8 MiB (0%)
Title : Cht
Language : Chinese
Default : No
Forced : No

Text #3
ID : 6
Format : PGS
Muxing mode : zlib
Codec ID : S_HDMV/PGS
Codec ID/Info : Picture based subtitle format used on BDs/HD-DVDs
Duration : 1 h 48 min
Bit rate : 19.7 kb/s
Count of elements : 2323
Stream size : 15.3 MiB (0%)
Title : Eng
Language : English
Default : No
Forced : No

Menu
00:00:00.000 : en:Chapter 1
00:05:04.512 : en:Chapter 2
00:09:29.777 : en:Chapter 3
00:13:46.367 : en:Chapter 4
00:17:21.373 : en:Chapter 5
00:21:17.234 : en:Chapter 6
00:27:03.747 : en:Chapter 7
00:31:02.777 : en:Chapter 8
00:36:00.825 : en:Chapter 9
00:41:05.921 : en:Chapter 10
00:48:14.683 : en:Chapter 11
00:56:12.285 : en:Chapter 12
01:01:52.583 : en:Chapter 13
01:06:38.995 : en:Chapter 14
01:14:13.073 : en:Chapter 15
01:21:37.058 : en:Chapter 16
01:29:13.723 : en:Chapter 17
01:38:52.968 : en:Chapter 18
01:44:48.156 : en:Chapter 19
01:47:12.551 : en:Chapter 20


BDRip 1080p Screenshots

The Monkey King 3: Kingdom Of Women / Xi you ji zhi nü er guo (2018)

The Monkey King 3: Kingdom Of Women / Xi you ji zhi nü er guo (2018)

The Monkey King 3: Kingdom Of Women / Xi you ji zhi nü er guo (2018)

The Monkey King 3: Kingdom Of Women / Xi you ji zhi nü er guo (2018)

The Monkey King 3: Kingdom Of Women / Xi you ji zhi nü er guo (2018)

The Monkey King 3: Kingdom Of Women / Xi you ji zhi nü er guo (2018)


Come Visit My Blog (•‿•)