The Mystery of Dark Matter (2012)

Posted By: Tutorial
1080p (FullHD) / WEBRip IMDb
The Mystery of Dark Matter (2012)

The Mystery of Dark Matter (2012)
1080p WEBRip | 1920 x 1080 | .MKV/AVC @ 8574 Kbps | 54 min 55 s | English E-AC-3 384 Kbps, 2 ch | 3.38 GB
720p WEBRip | 1280 x 720 | .MKV/AVC @ 4343 Kbps | 54 min 55 s | English E-AC-3 384 Kbps, 2 ch | 1.75 GB
Genre: Documentary / Subtitles: English

Dark matter, which is unknown and undetectable in our physical models, would appear to populate the cosmos on a massive scale. For the first time, a film portrays the wild scientific quest that dark matter gives rise to - a real thriller!

General
Unique ID : 320349444893344225156807726956139965030 (0xF1010F115EAADC0B4F85F67463CAEA66)
Complete name : The.Mystery.of.Dark.Matter.2012.1080p.mkv
Format : Matroska
Format version : Version 4 / Version 2
File size : 3.38 GiB
Duration : 54 min 55 s
Overall bit rate : 8 801 kb/s
Encoded date : UTC 2019-09-10 05:20:12
Writing application : mkvmerge v36.0.0 ('Is That Jazz?') 64-bit
Writing library : libebml v1.3.9 + libmatroska v1.5.2

Video
ID : 1
Format : AVC
Format/Info : Advanced Video Codec
Format profile : High@L4
Format settings, CABAC : Yes
Format settings, ReFrames : 4 frames
Codec ID : V_MPEG4/ISO/AVC
Duration : 54 min 55 s
Bit rate mode : Constant
Bit rate : 8 574 kb/s
Nominal bit rate : 10 000 kb/s
Width : 1 920 pixels
Height : 1 080 pixels
Display aspect ratio : 16:9
Frame rate mode : Constant
Frame rate : 25.000 FPS
Color space : YUV
Chroma subsampling : 4:2:0
Bit depth : 8 bits
Scan type : Progressive
Bits/(Pixel*Frame) : 0.165
Stream size : 3.29 GiB (97%)
Default : Yes
Forced : No
Color range : Limited
Color primaries : BT.709
Transfer characteristics : BT.709
Matrix coefficients : BT.709

Audio
ID : 2
Format : E-AC-3
Format/Info : Enhanced Audio Coding 3
Format settings, Endianness : Big
Codec ID : A_EAC3
Duration : 54 min 55 s
Bit rate mode : Constant
Bit rate : 224 kb/s
Channel(s) : 2 channels
Channel positions : Front: L R
Sampling rate : 48.0 kHz
Frame rate : 187.500 FPS (256 spf)
Compression mode : Lossy
Stream size : 88.0 MiB (3%)
Language : English
Service kind : Complete Main
Default : Yes
Forced : No

Text
ID : 3
Format : UTF-8
Codec ID : S_TEXT/UTF8
Codec ID/Info : UTF-8 Plain Text
Duration : 54 min 26 s
Bit rate : 86 b/s
Count of elements : 916
Stream size : 34.5 KiB (0%)
Title : English [CC](SDH)
Language : English
Default : Yes
Forced : No

General
Unique ID : 254815971663781104490273201652479226650 (0xBFB3C56124B56585FAD5449D337AF31A)
Complete name : The.Mystery.of.Dark.Matter.2012.720p.mkv
Format : Matroska
Format version : Version 4 / Version 2
File size : 1.75 GiB
Duration : 54 min 55 s
Overall bit rate : 4 569 kb/s
Encoded date : UTC 2019-09-10 05:27:25
Writing application : mkvmerge v36.0.0 ('Is That Jazz?') 64-bit
Writing library : libebml v1.3.9 + libmatroska v1.5.2

Video
ID : 1
Format : AVC
Format/Info : Advanced Video Codec
Format profile : High@L3.1
Format settings, CABAC : Yes
Format settings, ReFrames : 4 frames
Codec ID : V_MPEG4/ISO/AVC
Duration : 54 min 55 s
Bit rate mode : Constant
Bit rate : 4 343 kb/s
Nominal bit rate : 6 000 kb/s
Width : 1 280 pixels
Height : 720 pixels
Display aspect ratio : 16:9
Frame rate mode : Constant
Frame rate : 25.000 FPS
Color space : YUV
Chroma subsampling : 4:2:0
Bit depth : 8 bits
Scan type : Progressive
Bits/(Pixel*Frame) : 0.189
Stream size : 1.67 GiB (95%)
Default : Yes
Forced : No
Color range : Limited
Color primaries : BT.709
Transfer characteristics : BT.709
Matrix coefficients : BT.709

Audio
ID : 2
Format : E-AC-3
Format/Info : Enhanced Audio Coding 3
Format settings, Endianness : Big
Codec ID : A_EAC3
Duration : 54 min 55 s
Bit rate mode : Constant
Bit rate : 224 kb/s
Channel(s) : 2 channels
Channel positions : Front: L R
Sampling rate : 48.0 kHz
Frame rate : 187.500 FPS (256 spf)
Compression mode : Lossy
Stream size : 88.0 MiB (5%)
Language : English
Service kind : Complete Main
Default : Yes
Forced : No

Text
ID : 3
Format : UTF-8
Codec ID : S_TEXT/UTF8
Codec ID/Info : UTF-8 Plain Text
Duration : 54 min 26 s
Bit rate : 86 b/s
Count of elements : 916
Stream size : 34.5 KiB (0%)
Title : English [CC](SDH)
Language : English
Default : Yes
Forced : No
Screenshots WEBRip 1080p

The Mystery of Dark Matter (2012)

The Mystery of Dark Matter (2012)

Screenshots WEBRip 720p

The Mystery of Dark Matter (2012)

The Mystery of Dark Matter (2012)

Welcome to my blog - daily update!

The Mystery of Dark Matter (2012)