CBC - The Nature of Things: The Real T. Rex (2018)

Posted By: Tutorial
1080p (FullHD) / HDTV
CBC - The Nature of Things: The Real T. Rex (2018)

CBC - The Nature of Things: The Real T. Rex (2018)
HDTV | 1920 x 1080 | .MP4/AVC @ 4538 Kbps | 44 min 8 s | 1.45 GB
Audio: English AAC 160 Kbps, 2 channels | Subs: English
Genre: Documentary

A quest to find the truth about an iconic animal we all think we know: the Tyrannosaurus Rex, the most famous carnivore to ever walk the earth. What did T. rex really look like? Sound like? How did it move and behave? Ground-breaking scientific discoveries reveal that for years we’ve gotten T. Rex wrong.

General
Complete name : The.Nature.Of.Things.The.Real.T.Rex.1080p.HDTV.mp4
Format : MPEG-4
Format profile : Base Media
Codec ID : isom (isom)
File size : 1.45 GiB
Duration : 44 min 8 s
Overall bit rate mode : Variable
Overall bit rate : 4 701 kb/s
Encoded date : UTC 2019-09-21 19:47:26
Tagged date : UTC 2019-09-21 19:47:26

Video
ID : 1
Format : AVC
Format/Info : Advanced Video Codec
Format profile : High@L1.3
Format settings, CABAC : No
Format settings, ReFrames : 1 frame
Format settings, GOP : M=1, N=12
Codec ID : avc1
Codec ID/Info : Advanced Video Coding
Duration : 44 min 8 s
Bit rate : 4 538 kb/s
Maximum bit rate : 15.5 Mb/s
Width : 1 920 pixels
Height : 1 080 pixels
Display aspect ratio : 16:9
Frame rate mode : Constant
Frame rate : 29.970 (30000/1001) FPS
Color space : YUV
Chroma subsampling : 4:2:0
Bit depth : 8 bits
Scan type : Progressive
Bits/(Pixel*Frame) : 0.073
Stream size : 1.40 GiB (97%)
Title : The.Nature.Of.Things.The.Real.T.Rex.1080p.HDTV.x264.AAC..org.mp4
Encoded date : UTC 2019-09-21 17:57:06
Tagged date : UTC 2019-09-21 19:47:45

Audio
ID : 2
Format : AAC
Format/Info : Advanced Audio Codec
Format profile : LC
Codec ID : 40
Duration : 44 min 8 s
Bit rate mode : Variable
Bit rate : 160 kb/s
Maximum bit rate : 209 kb/s
Channel(s) : 2 channels
Channel positions : Front: L R
Sampling rate : 48.0 kHz
Frame rate : 46.875 FPS (1024 spf)
Compression mode : Lossy
Stream size : 50.5 MiB (3%)
Title : The.Nature.Of.Things.The.Real.T.Rex.1080p.HDTV.x264.AAC..org.mp4
Encoded date : UTC 2019-09-21 19:47:38
Tagged date : UTC 2019-09-21 19:47:45

Text
ID : 3
Format : Timed Text
Codec ID : tx3g
Duration : 43 min 28 s
Bit rate mode : Variable
Bit rate : 193 b/s
Stream size : 61.5 KiB (0%)
Title : The.Nature.Of.Things.The.Real.T.Rex.1080p.HDTV.x264.AAC..org.srt
Forced : No
Encoded date : UTC 2019-09-21 19:47:44
Tagged date : UTC 2019-09-21 19:47:45
Screenshots

CBC - The Nature of Things: The Real T. Rex (2018)

CBC - The Nature of Things: The Real T. Rex (2018)

CBC - The Nature of Things: The Real T. Rex (2018)

Welcome to my blog - daily update!

CBC - The Nature of Things: The Real T. Rex (2018)