BBC - The Placebo Experiment: Can My Brain Cure My Body? (2018)

Posted By: notbanned
720p (HD) / HDTV
BBC - The Placebo Experiment: Can My Brain Cure My Body? (2018)

BBC - The Placebo Experiment: Can My Brain Cure My Body? (2018)
HDTV | 1280x720 | .MKV/AVC @ 2441 Kbps | 58 min 42 s | 1.18 GiB
Audio: English AC3 384 kbps, 2 channels | Subs: None
Genre: Documentary

Could the power of fake pills be used to treat some of our most common medical complaints? To find out, Dr Michael Mosley embarks on Britain's largest ever trial to investigate the placebo effect. He is heading to Blackpool to gather 117 people suffering from backache - one of the leading types of chronic pain - before trying to treat them with nothing but fake pills and the power of the mind. Working with experts from the University of Oxford, Michael discovers that the placebo effect is more than just a medical curiosity. The brain is actually capable of producing its own drugs, and these can be more powerful than prescription painkillers. Michael's volunteers come from all walks of life, but they have all suffered with bad backs for years and feel their conventional medication isn't up to the job. They include Stacey, who is struggling to keep up with her two energetic daughters, wheelchair user Jim, who longs to be able to get back on a boat, and poker player Moyra, who is looking for a painkiller which doesn't affect her performance.

General
Unique ID : 301753255928918166204920258187342296905 (0xE303902A01F10F08F72132E1EB9EB749)
Complete name : The.Placebo.Experiment.Can.My.Brain.Cure.My.Body.2018.720p.mkv
Format : Matroska
Format version : Version 4 / Version 2
File size : 1.18 GiB
Duration : 58 min 42 s
Overall bit rate : 2 882 kb/s

Video
ID : 1
Format : AVC
Format/Info : Advanced Video Codec
Format profile : High@L3.1
Format settings, CABAC : Yes
Format settings, ReFrames : 3 frames
Codec ID : V_MPEG4/ISO/AVC
Duration : 58 min 42 s
Bit rate : 2 441 kb/s
Width : 1 280 pixels
Height : 720 pixels
Display aspect ratio : 16:9
Frame rate mode : Constant
Frame rate : 25.000 FPS
Color space : YUV
Chroma subsampling : 4:2:0
Bit depth : 8 bits
Scan type : Progressive
Bits/(Pixel*Frame) : 0.106
Stream size : 1.00 GiB (85%)
Writing library : Lavc57.107.100 h264_qsv
Default : Yes
Forced : No
DURATION : 00:58:42.805000000
HANDLER_NAME : VideoHandler

Audio
ID : 2
Format : AC-3
Format/Info : Audio Coding 3
Format settings, Endianness : Big
Codec ID : A_AC3
Duration : 58 min 42 s
Bit rate mode : Constant
Bit rate : 384 kb/s
Channel(s) : 2 channels
Channel positions : Front: L R
Sampling rate : 48.0 kHz
Frame rate : 31.250 FPS (1536 spf)
Bit depth : 16 bits
Compression mode : Lossy
Delay relative to video : -40 ms
Stream size : 161 MiB (13%)
Writing library : Lavc57.107.100 ac3
Language : English
Service kind : Complete Main
Default : Yes
Forced : No
DURATION : 00:58:42.720000000


Screenshots:

BBC - The Placebo Experiment: Can My Brain Cure My Body? (2018)

BBC - The Placebo Experiment: Can My Brain Cure My Body? (2018)

BBC - The Placebo Experiment: Can My Brain Cure My Body? (2018)

BBC - The Placebo Experiment: Can My Brain Cure My Body? (2018)