Please register here if you want to download anything!

If domain in your address bar is different from the list below
PLEASE LEAVE THAT SITE IMMEDIATELY
❗IT'S A DANGEROUS FAKE❗



Spicy Magazines for Men! ;-)

The Protector 2 / Tom yum goong 2 (2013)

Posted By: Without
1080p (FullHD) / BDRip IMDb
The Protector 2 / Tom yum goong 2 (2013)

The Protector 2 / Tom yum goong 2 (2013)
BRRip | AVI | 1 h 44 min | 1.32 GB | 720x306 | XviD@1599 kb/s | ภาษาไทย MP3@192 kb/s, 2 ch
BDRip 1080p | MKV | 1 h 45 min | 9.85 GB | 1920x816 | AVC@12.0 Mb/s | ภาษาไทย DTS@1509 kb/s, 6 ch
Subs: English, Nederlands, Suomi, Français, Deutsch, Português, Español, tiếng Việt
Genre: Action

When the owner of a major elephant camp is murdered, Kham finds himself the number one suspect and on the run from both the police and the deceased's vengeful twin nieces. But luck is on Kham's side when he runs into an Interpol agent sent to Thailand on a secret mission.



General
The.Protector.2.2013.THAI.BRRip.XviD.MP3-VXT.avi
Format : AVI
Format/Info : Audio Video Interleave
Format profile : OpenDML
File size : 1.32 GB
Duration : 1 h 44 min
Overall bit rate : 1806 kb/s
Writing application : Lavf58.20.100

Video
ID : 0
Format : MPEG-4 Visual
Format profile : Simple@L5
Format settings, BVOP : No
Format settings, QPel : No
Format settings, GMC : No warppoints
Format settings, Matrix : Default (H.263)
Codec ID : XVID
Codec ID/Hint : XviD
Duration : 1 h 44 min
Bit rate : 1599 kb/s
Width : 720 pixels
Height : 306 pixels
Display aspect ratio : 2.35:1
Frame rate : 23.976 (24000/1001) FPS
Color space : YUV
Chroma subsampling : 4:2:0
Bit depth : 8 bits
Scan type : Progressive
Compression mode : Lossy
Bits/(Pixel*Frame) : 0.303
Stream size : 1.17 GB (89%)
Writing library : Lavc58.35.100

Audio
ID : 1
Format : MPEG Audio
Format version : Version 1
Format profile : Layer 3
Mode : Joint stereo
Mode extension : MS Stereo
Codec ID : 55
Codec ID/Hint : MP3
Duration : 1 h 44 min
Bit rate mode : Constant
Bit rate : 192 kb/s
Channel(s) : 2 channels
Sampling rate : 48.0 kHz
Compression mode : Lossy
Stream size : 144 MB (11%)
Alignment : Aligned on interleaves
Interleave, duration : 24 ms (0.58 video frame)
Interleave, preload duration : 24 ms
Writing library : LAME3.99.5


General
The.Protector.2.2013.THAI.1080p.BluRay.x264.DTS-FGT.mkv
Format : Matroska
Format version : Version 4 / Version 2
File size : 9.85 GB
Duration : 1 h 45 min
Overall bit rate : 13.3 Mb/s
Movie name : The.Protector.2.2013.THAI.1080p.BluRay.x264.DTS-FGT
Encoded date : UTC 2019-05-10 19:41:12
Writing application : mkvmerge v33.1.0 ('Primrose') 64-bit
Writing library : libebml v1.3.7 + libmatroska v1.5.0
Cover : Yes
Attachments : cover_land.jpg / small_cover.jpg / small_cover_land.jpg / cover.jpg

Video
ID : 1
Format : AVC
Format/Info : Advanced Video Codec
Format profile : High@L4.1
Format settings, CABAC : Yes
Format settings, ReFrames : 5 frames
Codec ID : V_MPEG4/ISO/AVC
Duration : 1 h 44 min
Bit rate : 12.0 Mb/s
Width : 1920 pixels
Height : 816 pixels
Display aspect ratio : 2.35:1
Frame rate mode : Constant
Frame rate : 23.976 (24000/1001) FPS
Color space : YUV
Chroma subsampling : 4:2:0
Bit depth : 8 bits
Scan type : Progressive
Bits/(Pixel*Frame) : 0.318
Stream size : 8.75 GB (89%)
Title : The.Protector.2.2013.THAI.1080p.BluRay.x264.DTS-FGT
Writing library : x264 core 148 r2705.16 d50a22e VietHD_Custom_64
Encoding settings : cabac=1 / ref=5 / deblock=1:-3:-3 / analyse=0x3:0x133 / me=umh / subme=10 / psy=1 / fade_compensate=0.00 / psy_rd=1.08:0.00 / mixed_ref=1 / me_range=24 / chroma_me=1 / trellis=2 / 8x8dct=1 / cqm=0 / deadzone=21,11 / fast_pskip=0 / chroma_qp_offset=-2 / threads=12 / lookahead_threads=2 / sliced_threads=0 / nr=0 / decimate=0 / interlaced=0 / bluray_compat=0 / constrained_intra=0 / fgo=0 / bframes=7 / b_pyramid=2 / b_adapt=2 / b_bias=0 / direct=3 / weightb=1 / open_gop=0 / weightp=2 / keyint=250 / keyint_min=23 / scenecut=40 / intra_refresh=0 / rc_lookahead=60 / rc=crf / mbtree=0 / crf=19.3000 / qcomp=0.65 / qpmin=0:0:0 / qpmax=69:69:69 / qpstep=4 / vbv_maxrate=62500 / vbv_bufsize=78125 / crf_max=0.0 / nal_hrd=none / filler=0 / ip_ratio=1.30 / pb_ratio=1.20 / aq=3:0.72 / aq-sensitivity=10.00 / aq-factor=1.00:1.00:1.00 / aq2=0 / aq3=0 / zones=1,1056,crf=17/2732,4432,crf=17/15592,20018,crf=18/21914,27683,crf=18/28141,45526,crf=18/45527,46598,crf=17.5/46599,70931,crf=18/71689,98080,crf=18/100663,107213,crf=18/107214,128833,crf=17/130324,132450,crf=18/135628,141114,crf=18/143389,144913,crf=18.5
Language : Thai
Default : Yes
Forced : No
Color range : Limited
Matrix coefficients : BT.709

Audio
ID : 2
Format : DTS
Format/Info : Digital Theater Systems
Mode : 16
Format settings, Endianness : Big
Codec ID : A_DTS
Duration : 1 h 44 min
Bit rate mode : Constant
Bit rate : 1509 kb/s
Channel(s) : 6 channels
Channel positions : Front: L C R, Side: L R, LFE
Sampling rate : 48.0 kHz
Frame rate : 93.750 FPS (512 spf)
Bit depth : 24 bits
Compression mode : Lossy
Stream size : 1.10 GB (11%)
Title : The.Protector.2.2013.THAI.1080p.BluRay.x264.DTS-FGT
Language : Thai
Default : Yes
Forced : No

Text #1
ID : 3
Format : UTF-8
Codec ID : S_TEXT/UTF8
Codec ID/Info : UTF-8 Plain Text
Duration : 1 h 43 min
Bit rate : 15 b/s
Count of elements : 402
Stream size : 11.6 KiB (0%)
Title : English
Language : English
Default : Yes
Forced : No

Text #2
ID : 4
Format : UTF-8
Codec ID : S_TEXT/UTF8
Codec ID/Info : UTF-8 Plain Text
Duration : 33 min 48 s
Bit rate : 0 b/s
Count of elements : 2
Stream size : 64.0 Bytes (0%)
Title : English
Language : English
Default : No
Forced : No

Text #3
ID : 5
Format : UTF-8
Codec ID : S_TEXT/UTF8
Codec ID/Info : UTF-8 Plain Text
Duration : 1 h 43 min
Bit rate : 25 b/s
Count of elements : 498
Stream size : 19.2 KiB (0%)
Title : Dutch
Language : Dutch
Default : No
Forced : No

Text #4
ID : 6
Format : UTF-8
Codec ID : S_TEXT/UTF8
Codec ID/Info : UTF-8 Plain Text
Duration : 1 h 39 min
Bit rate : 21 b/s
Count of elements : 384
Stream size : 15.8 KiB (0%)
Title : Finnish
Language : Finnish
Default : No
Forced : No

Text #5
ID : 7
Format : UTF-8
Codec ID : S_TEXT/UTF8
Codec ID/Info : UTF-8 Plain Text
Duration : 1 h 43 min
Bit rate : 23 b/s
Count of elements : 663
Stream size : 17.9 KiB (0%)
Title : French
Language : French
Default : No
Forced : No

Text #6
ID : 8
Format : UTF-8
Codec ID : S_TEXT/UTF8
Codec ID/Info : UTF-8 Plain Text
Duration : 1 h 43 min
Bit rate : 31 b/s
Count of elements : 501
Stream size : 23.8 KiB (0%)
Title : German
Language : German
Default : No
Forced : No

Text #7
ID : 9
Format : UTF-8
Codec ID : S_TEXT/UTF8
Codec ID/Info : UTF-8 Plain Text
Duration : 1 h 39 min
Bit rate : 23 b/s
Count of elements : 517
Stream size : 16.8 KiB (0%)
Title : Portuguese
Language : Portuguese
Default : No
Forced : No

Text #8
ID : 10
Format : UTF-8
Codec ID : S_TEXT/UTF8
Codec ID/Info : UTF-8 Plain Text
Duration : 1 h 43 min
Bit rate : 24 b/s
Count of elements : 598
Stream size : 18.7 KiB (0%)
Title : Spanish
Language : Spanish
Default : No
Forced : No

Text #9
ID : 11
Format : UTF-8
Codec ID : S_TEXT/UTF8
Codec ID/Info : UTF-8 Plain Text
Duration : 1 h 37 min
Bit rate : 27 b/s
Count of elements : 518
Stream size : 19.5 KiB (0%)
Title : Vietnamese
Language : Vietnamese
Default : No
Forced : No

Menu
00:00:00.000 : en:00:00:00.000
00:10:04.854 : en:00:10:04.854
00:17:34.345 : en:00:17:34.345
00:27:33.652 : en:00:27:33.652
00:36:42.826 : en:00:36:42.826
00:45:56.963 : en:00:45:56.963
00:53:24.868 : en:00:53:24.868
01:02:10.727 : en:01:02:10.727
01:11:17.064 : en:01:11:17.064
01:20:18.355 : en:01:20:18.355
01:28:55.872 : en:01:28:55.872
01:38:10.676 : en:01:38:10.676



BRRip Screenshots

The Protector 2 / Tom yum goong 2 (2013)

The Protector 2 / Tom yum goong 2 (2013)

The Protector 2 / Tom yum goong 2 (2013)


BDRip 1080p Screenshots

The Protector 2 / Tom yum goong 2 (2013)

The Protector 2 / Tom yum goong 2 (2013)

The Protector 2 / Tom yum goong 2 (2013)


Come Visit My Blog (•‿•)