FreetoChoose Media - The Real Adam Smith: Series 1 (2016)

Posted By: Tutorial
FreetoChoose Media - The Real Adam Smith: Series 1 (2016)

FreetoChoose Media - The Real Adam Smith: Series 1 (2016)
HDTV | 1280 x 720 | .MP4/AVC @ 2938 Kbps | 2x~56mn | 2.49 GB
Audio: English AAC 160 Kbps, 2 channels | Subs: English
Genre: Documentary, Biography, History

What can a man with a plain name who lived over 200 years ago tell us about life today? Who was The Real Adam Smith? And why should we care? In this two-hour, two-part documentary, Swedish author, commentator and Cato Senior Fellow Johan Norberg explores Adam Smith’s life, his ideas about morality and economics, and how the concepts he discussed in his books and lectures are still relevant.
Part 1: Morality And Markets
Today’s markets have a scope of international trade that would have been unimaginable even a few decades ago. How does globalization benefit us? How are the ideas about markets and morality in Adam Smith’s book, The Wealth of Nations, written nearly 240 years ago, relevant today?

Part 2: Ideas that Changed the World
Adam Smith’s observations, written in the 18th century, regarding the benefits of free trade and the nature of wealth, are valid in the 21st Century. How have his notions of the nature of wealth and the movement of capital influenced today's world?

General
Complete name : The.Real.Adam.Smith.Series.1.1of2.Morality.And.Markets.mp4
Format : MPEG-4
Format profile : Base Media
Codec ID : isom (isom)
File size : 1.22 GiB
Duration : 56 min 23 s
Overall bit rate mode : Variable
Overall bit rate : 3 102 kb/s
Encoded date : UTC 2017-09-11 10:22:10
Tagged date : UTC 2017-09-11 10:22:10
Writing application : My MP4Box GUI 0.6.0.6

Video
ID : 1
Format : AVC
Format/Info : Advanced Video Codec
Format profile : High@L4.1
Format settings, CABAC : Yes
Format settings, ReFrames : 4 frames
Codec ID : avc1
Codec ID/Info : Advanced Video Coding
Duration : 56 min 23 s
Bit rate : 2 938 kb/s
Maximum bit rate : 10.7 Mb/s
Width : 1 280 pixels
Height : 720 pixels
Display aspect ratio : 16:9
Frame rate mode : Variable
Frame rate : 23.976 (24000/1001) FPS
Minimum frame rate : 23.974 FPS
Maximum frame rate : 23.981 FPS
Color space : YUV
Chroma subsampling : 4:2:0
Bit depth : 8 bits
Scan type : Progressive
Bits/(Pixel*Frame) : 0.133
Stream size : 1.16 GiB (95%)
Title : The.Real.Adam.Smith.Series.1.1of2.Morality.And.Markets.720p.HDTV.x264.AAC.
Writing library : x264 core 130 r2273 b3065e6
Encoding settings : cabac=1 / ref=1 / deblock=1:0:0 / analyse=0x3:0x3 / me=dia / subme=1 / psy=1 / psy_rd=1.00:0.00 / mixed_ref=0 / me_range=16 / chroma_me=1 / trellis=0 / 8x8dct=1 / cqm=0 / deadzone=21,11 / fast_pskip=1 / chroma_qp_offset=0 / threads=6 / lookahead_threads=1 / sliced_threads=0 / nr=0 / decimate=1 / interlaced=0 / bluray_compat=0 / constrained_intra=0 / bframes=3 / b_pyramid=2 / b_adapt=1 / b_bias=0 / direct=1 / weightb=1 / open_gop=0 / weightp=1 / keyint=240 / keyint_min=24 / scenecut=40 / intra_refresh=0 / rc_lookahead=0 / rc=crf / mbtree=0 / crf=21.0 / qcomp=0.60 / qpmin=0 / qpmax=69 / qpstep=4 / vbv_maxrate=62500 / vbv_bufsize=78125 / crf_max=0.0 / nal_hrd=none / ip_ratio=1.40 / pb_ratio=1.30 / aq=1:1.00
Encoded date : UTC 2017-09-11 09:20:49
Tagged date : UTC 2017-09-11 10:22:41
Color range : Limited
Color primaries : BT.709
Transfer characteristics : BT.709
Matrix coefficients : BT.709

Audio
ID : 2
Format : AAC
Format/Info : Advanced Audio Codec
Format profile : LC
Codec ID : 40
Duration : 56 min 23 s
Bit rate mode : Variable
Bit rate : 160 kb/s
Maximum bit rate : 332 kb/s
Channel(s) : 2 channels
Channel positions : Front: L R
Sampling rate : 44.1 kHz
Frame rate : 43.066 FPS (1024 spf)
Compression mode : Lossy
Stream size : 64.5 MiB (5%)
Title : The.Real.Adam.Smith.Series.1.1of2.Morality.And.Markets.720p.HDTV.x264.AAC
Encoded date : UTC 2017-09-11 10:22:37
Tagged date : UTC 2017-09-11 10:22:41

Text
ID : 3
Format : Timed Text
Codec ID : tx3g
Duration : 56 min 19 s
Bit rate mode : Variable
Bit rate : 120 b/s
Stream size : 49.4 KiB (0%)
Title : The.Real.Adam.Smith.Series.1.1of2.Morality.And.Markets.720p.HDTV.x264.AAC
Forced : No
Encoded date : UTC 2017-09-11 10:22:41
Tagged date : UTC 2017-09-11 10:22:41
Screenshots

FreetoChoose Media - The Real Adam Smith: Series 1 (2016)

FreetoChoose Media - The Real Adam Smith: Series 1 (2016)

FreetoChoose Media - The Real Adam Smith: Series 1 (2016)

Welcome to my blog - daily update!

FreetoChoose Media - The Real Adam Smith: Series 1 (2016)