The Science of Doctor Who (2013)

Posted By: notbanned
720p (HD) / HDTV IMDb
The Science of Doctor Who (2013)

The Science of Doctor Who (2013)
HDTV | 1280x720 | .MP4/AVC @ 2280 Kbps | 59 min 23 s | 1.08 GiB
Audio: English AAC 317 kbps, 2 channels | Subs: English
Genre: Documentary | Sci-Fi

British physicist Brian Cox lectures on the nature of time and space, black holes, time dilation and the possibility of time travel a la Doctor Who by using experiments featuring celebrity guests, demonstrations and segments set on board the TARDIS featuring Cox and the Eleventh Doctor.

General
Complete name : The.Science.of.Doctor.Who.2013.720p.mp4
Format : MPEG-4
Format profile : Base Media / Version 2
Codec ID : mp42 (mp42/isom)
File size : 1.08 GiB
Duration : 59 min 23 s
Overall bit rate mode : Variable
Overall bit rate : 2 602 kb/s

Video
ID : 2
Format : AVC
Format/Info : Advanced Video Codec
Format profile : High@L4.1
Format settings, CABAC : Yes
Format settings, ReFrames : 2 frames
Codec ID : avc1
Codec ID/Info : Advanced Video Coding
Duration : 59 min 23 s
Bit rate mode : Variable
Bit rate : 2 280 kb/s
Maximum bit rate : 3 500 kb/s
Width : 1 280 pixels
Height : 720 pixels
Display aspect ratio : 16:9
Frame rate mode : Constant
Frame rate : 25.000 FPS
Color space : YUV
Chroma subsampling : 4:2:0
Bit depth : 8 bits
Scan type : Progressive
Bits/(Pixel*Frame) : 0.099
Stream size : 968 MiB (88%)
Encoded date : UTC 2017-12-15 13:43:25
Tagged date : UTC 2017-12-15 13:44:53

Audio
ID : 1
Format : AAC
Format/Info : Advanced Audio Codec
Format profile : LC
Codec ID : 40
Duration : 59 min 23 s
Source duration : 59 min 23 s
Bit rate mode : Constant
Bit rate : 317 kb/s
Channel(s) : 2 channels
Channel positions : Front: L R
Sampling rate : 48.0 kHz
Frame rate : 46.875 FPS (1024 spf)
Compression mode : Lossy
Stream size : 135 MiB (12%)
Source stream size : 135 MiB (12%)
Language : English
Default : Yes
Alternate group : 1
Encoded date : UTC 2017-12-15 13:43:25
Tagged date : UTC 2017-12-15 13:44:53

Text
ID : 3
Format : Timed Text
Muxing mode : sbtl
Codec ID : tx3g
Duration : 58 min 56 s
Bit rate mode : Variable
Bit rate : 184 b/s
Stream size : 79.3 KiB (0%)
Language : English
Default : Yes
Forced : No
Alternate group : 2
Encoded date : UTC 2017-12-15 13:43:25
Tagged date : UTC 2017-12-15 13:43:25


Screenshots:

The Science of Doctor Who (2013)

The Science of Doctor Who (2013)

The Science of Doctor Who (2013)