Channel 4 - The Truth About Muslim Marriage (2017)

Posted By: notbanned
720p (HD) / HDTV
Channel 4 - The Truth About Muslim Marriage (2017)

Channel 4 - The Truth About Muslim Marriage (2017)
HDTV | 1280x720 | .MKV/AVC @ 1879 Kbps | 46 min 50 s | 672 MiB
Audio: English AAC 124 kbps, 2 channels | Subs: None
Genre: Documentary

Many Muslim women in Britain are unaware that their marriages aren't legally recognised. This documentary meets women whose nuptials don't afford them the same rights and protections as other couples.


General
Unique ID : 261009248773565807822532001388966296553 (0xC45C8D84231BC09721D8D602F3D1BBE9)
Complete name : The.Truth.About.Muslim.Marriage.720p.mkv
Format : Matroska
Format version : Version 4 / Version 2
File size : 672 MiB
Duration : 46 min 50 s
Overall bit rate : 2 006 kb/s

Video
ID : 1
Format : AVC
Format/Info : Advanced Video Codec
Format profile : High@L4.1
Format settings, CABAC : Yes
Format settings, ReFrames : 5 frames
Codec ID : V_MPEG4/ISO/AVC
Duration : 46 min 50 s
Bit rate : 1 879 kb/s
Width : 1 280 pixels
Height : 720 pixels
Display aspect ratio : 16:9
Frame rate mode : Constant
Frame rate : 25.000 FPS
Color space : YUV
Chroma subsampling : 4:2:0
Bit depth : 8 bits
Scan type : Progressive
Bits/(Pixel*Frame) : 0.082
Stream size : 630 MiB (94%)
Writing library : x264 core 152 r2851 ba24899
Encoding settings : cabac=1 / ref=5 / deblock=1:0:0 / analyse=0x3:0x113 / me=hex / subme=9 / psy=1 / psy_rd=1.00:0.00 / mixed_ref=1 / me_range=16 / chroma_me=1 / trellis=2 / 8x8dct=1 / cqm=0 / deadzone=21,11 / fast_pskip=1 / chroma_qp_offset=-2 / threads=12 / lookahead_threads=1 / sliced_threads=0 / nr=0 / decimate=1 / interlaced=0 / bluray_compat=0 / constrained_intra=0 / bframes=3 / b_pyramid=2 / b_adapt=1 / b_bias=0 / direct=3 / weightb=1 / open_gop=0 / weightp=2 / keyint=250 / keyint_min=25 / scenecut=40 / intra_refresh=0 / rc_lookahead=50 / rc=crf / mbtree=1 / crf=20.0 / qcomp=0.60 / qpmin=0 / qpmax=69 / qpstep=4 / ip_ratio=1.40 / aq=1:1.00
Language : English
Default : Yes
Forced : No
Color range : Limited
Matrix coefficients : BT.709

Audio
ID : 2
Format : AAC
Format/Info : Advanced Audio Codec
Format profile : LC
Codec ID : A_AAC
Duration : 46 min 50 s
Bit rate : 124 kb/s
Channel(s) : 2 channels
Channel positions : Front: L R
Sampling rate : 48.0 kHz
Frame rate : 46.875 FPS (1024 spf)
Compression mode : Lossy
Stream size : 41.5 MiB (6%)
Language : English
Default : Yes
Forced : No


Screenshots:

Channel 4 - The Truth About Muslim Marriage (2017)

Channel 4 - The Truth About Muslim Marriage (2017)

Channel 4 - The Truth About Muslim Marriage (2017)

Channel 4 - The Truth About Muslim Marriage (2017)