The Walking Dead S08E01 (2017)

Posted By: JohnSmith
The Walking Dead S08E01 (2017)

The Walking Dead S08E01 (2017)
HDRip | MKV / AVC@1500 kb/s | 720x400 | 47mn | 637 MB | English: AC3, 384 kb/s (6 ch)
WEB-DL 720p | MKV / AVC@4100 kb/s | 1280x716 | 47mn | 1.48 GB | English: AC3, 384 kb/s (6 ch)
WEB-DL 1080p | MKV / AVC@5250 kb/s | 1908x1068 | 47mn | 1.86 GB | English: AC3, 384 kb/s (6 ch)
WEB-DL 720p | MKV / AVC@4265 kb/s | 1280x720 | 47mn | 1.65 GB
English: AC3, 640 kb/s (6 ch) | Subtitles: English
WEB-DL 1080p | MKV / AVC@14.1 Mb/s | 1920x1080 | 47mn | 4.85 GB
English: AC3, 640 kb/s (6 ch) | Subtitles: English
Genre: Drama | Horror

Sheriff Deputy Rick Grimes gets shot in combat and awakens to a zombie apocalypse. He meets a group on the outskirts of Atlanta and soon, becomes their leader. The walkers (what they call zombies) feed on the living, so they try to move to different and safer locations to survive.

IMDB - Nominated for 1 Golden Globe. Another 63 wins & 175 nominations.



General
Unique ID : 208903914028686115847201104055902396614 (0x9D296E2B991D9CDA82C9FA69EAAFE0C6)
Complete name : A:\The.Walking.Dead.S08E01.HDRip.mkv
Format : Matroska
Format version : Version 4 / Version 2
File size : 637 MiB
Duration : 47 min 14 s
Overall bit rate : 1 886 kb/s
Movie name : Mercy
Encoded date : UTC 2017-10-23 07:12:28
Writing application : mkvmerge v8.3.0 ('Over the Horizon') 64bit
Writing library : libebml v1.3.1 + libmatroska v1.4.2

Video
ID : 1
Format : AVC
Format/Info : Advanced Video Codec
Format profile : Baseline@L3.1
Format settings, CABAC : No
Format settings, ReFrames : 1 frame
Codec ID : V_MPEG4/ISO/AVC
Duration : 47 min 14 s
Bit rate : 1 500 kb/s
Width : 720 pixels
Height : 400 pixels
Display aspect ratio : 16:9
Frame rate mode : Constant
Frame rate : 23.976 (24000/1001) FPS
Color space : YUV
Chroma subsampling : 4:2:0
Bit depth : 8 bits
Scan type : Progressive
Bits/(Pixel*Frame) : 0.217
Stream size : 507 MiB (80%)
Writing library : x264 core 148 r2708 86b7198
Encoding settings : cabac=0 / ref=1 / deblock=1:0:0 / analyse=0x1:0x111 / me=hex / subme=2 / psy=1 / psy_rd=1.00:0.00 / mixed_ref=0 / me_range=16 / chroma_me=1 / trellis=0 / 8x8dct=0 / cqm=0 / deadzone=21,11 / fast_pskip=1 / chroma_qp_offset=0 / threads=12 / lookahead_threads=3 / sliced_threads=0 / nr=0 / decimate=1 / interlaced=0 / bluray_compat=0 / constrained_intra=0 / bframes=0 / weightp=0 / keyint=240 / keyint_min=24 / scenecut=40 / intra_refresh=0 / rc_lookahead=10 / rc=2pass / mbtree=1 / bitrate=1500 / ratetol=1.0 / qcomp=0.60 / qpmin=0 / qpmax=69 / qpstep=4 / cplxblur=20.0 / qblur=0.5 / vbv_maxrate=14000 / vbv_bufsize=14000 / nal_hrd=none / filler=0 / ip_ratio=1.40 / aq=1:1.00
Default : Yes
Forced : No
Color range : Limited
Color primaries : BT.709
Transfer characteristics : BT.709
Matrix coefficients : BT.709

Audio
ID : 2
Format : AC-3
Format/Info : Audio Coding 3
Format settings, Endianness : Big
Codec ID : A_AC3
Duration : 47 min 14 s
Bit rate mode : Constant
Bit rate : 384 kb/s
Channel(s) : 6 channels
Channel positions : Front: L C R, Side: L R, LFE
Sampling rate : 48.0 kHz
Frame rate : 31.250 FPS (1536 spf)
Bit depth : 16 bits
Compression mode : Lossy
Stream size : 130 MiB (20%)
Title : Surround
Language : English
Service kind : Complete Main
Default : Yes
Forced : No





General
Unique ID : 244035004791550232547634374548468769237 (0xB7976EAC914F90A8BA98E57A99B3A1D5)
Complete name : A:\The.Walking.Dead.S08E01.720p.WEB-DL.mkv
Format : Matroska
Format version : Version 4 / Version 2
File size : 1.48 GiB
Duration : 47 min 14 s
Overall bit rate : 4 488 kb/s
Encoded date : UTC 2017-10-23 07:10:56
Writing application : mkvmerge v8.3.0 ('Over the Horizon') 64bit
Writing library : libebml v1.3.1 + libmatroska v1.4.2

Video
ID : 1
Format : AVC
Format/Info : Advanced Video Codec
Format profile : High@L3.1
Format settings, CABAC : No
Format settings, ReFrames : 2 frames
Codec ID : V_MPEG4/ISO/AVC
Duration : 47 min 14 s
Bit rate : 4 102 kb/s
Width : 1 280 pixels
Height : 716 pixels
Display aspect ratio : 16:9
Frame rate mode : Constant
Frame rate : 23.976 (24000/1001) FPS
Color space : YUV
Chroma subsampling : 4:2:0
Bit depth : 8 bits
Scan type : Progressive
Bits/(Pixel*Frame) : 0.187
Stream size : 1.35 GiB (91%)
Language : English
Default : Yes
Forced : No
Color range : Limited
Color primaries : BT.709
Transfer characteristics : BT.709
Matrix coefficients : BT.709

Audio
ID : 2
Format : AC-3
Format/Info : Audio Coding 3
Format settings, Endianness : Big
Codec ID : A_AC3
Duration : 47 min 14 s
Bit rate mode : Constant
Bit rate : 384 kb/s
Channel(s) : 6 channels
Channel positions : Front: L C R, Side: L R, LFE
Sampling rate : 48.0 kHz
Frame rate : 31.250 FPS (1536 spf)
Bit depth : 16 bits
Compression mode : Lossy
Stream size : 130 MiB (9%)
Language : English
Service kind : Complete Main
Default : Yes
Forced : No





General
Unique ID : 254008411456730326727785708667767086531 (0xBF183D9653FFAF32B2C6F367CDEFDDC3)
Complete name : A:\The.Walking.Dead.S08E01.1080p.WEB-DL.mkv
Format : Matroska
Format version : Version 4 / Version 2
File size : 1.86 GiB
Duration : 47 min 14 s
Overall bit rate : 5 633 kb/s
Encoded date : UTC 2017-10-23 07:11:25
Writing application : mkvmerge v8.3.0 ('Over the Horizon') 64bit
Writing library : libebml v1.3.1 + libmatroska v1.4.2

Video
ID : 1
Format : AVC
Format/Info : Advanced Video Codec
Format profile : High@L4
Format settings, CABAC : Yes
Format settings, ReFrames : 4 frames
Codec ID : V_MPEG4/ISO/AVC
Duration : 47 min 14 s
Bit rate : 5 247 kb/s
Width : 1 908 pixels
Height : 1 068 pixels
Display aspect ratio : 16:9
Frame rate mode : Constant
Frame rate : 23.976 (24000/1001) FPS
Color space : YUV
Chroma subsampling : 4:2:0
Bit depth : 8 bits
Scan type : Progressive
Bits/(Pixel*Frame) : 0.107
Stream size : 1.73 GiB (93%)
Language : English
Default : Yes
Forced : No
Color range : Limited
Color primaries : BT.709
Transfer characteristics : BT.709
Matrix coefficients : BT.709

Audio
ID : 2
Format : AC-3
Format/Info : Audio Coding 3
Format settings, Endianness : Big
Codec ID : A_AC3
Duration : 47 min 14 s
Bit rate mode : Constant
Bit rate : 384 kb/s
Channel(s) : 6 channels
Channel positions : Front: L C R, Side: L R, LFE
Sampling rate : 48.0 kHz
Frame rate : 31.250 FPS (1536 spf)
Bit depth : 16 bits
Compression mode : Lossy
Stream size : 130 MiB (7%)
Language : English
Service kind : Complete Main
Default : Yes
Forced : No





General
Unique ID : 232374561305616278076665303045519971652 (0xAED1B66C8298C159AF3AFD9BD3A41544)
Complete name : D:\Downloads\The.Walking.Dead.S08E01.Mercy.720p.AMZN.WEB-DL.DD+5.1.H.264-CasStudio.mkv
Format : Matroska
Format version : Version 4 / Version 2
File size : 1.65 GiB
Duration : 47 min 14 s
Overall bit rate mode : Variable
Overall bit rate : 5 005 kb/s
Movie name : The Walking Dead 08x01 (Mercy) - release by messafan for CasStudio
Encoded date : UTC 2017-10-23 07:16:19
Writing application : mkvmerge v6.7.0 ('Back to the Ground') 64bit built on Jan 8 2014 15:10:52
Writing library : libebml v1.3.0 + libmatroska v1.4.1

Video
ID : 1
Format : AVC
Format/Info : Advanced Video Codec
Format profile : High@L3.1
Format settings, CABAC : Yes
Format settings, ReFrames : 5 frames
Codec ID : V_MPEG4/ISO/AVC
Duration : 47 min 14 s
Bit rate mode : Variable
Bit rate : 4 265 kb/s
Maximum bit rate : 4 500 kb/s
Width : 1 280 pixels
Height : 720 pixels
Display aspect ratio : 16:9
Frame rate mode : Constant
Frame rate : 23.976 (24000/1001) FPS
Color space : YUV
Chroma subsampling : 4:2:0
Bit depth : 8 bits
Scan type : Progressive
Bits/(Pixel*Frame) : 0.193
Stream size : 1.41 GiB (85%)
Default : Yes
Forced : No
Color range : Limited
Color primaries : BT.709
Transfer characteristics : BT.709
Matrix coefficients : BT.709

Audio
ID : 2
Format : E-AC-3
Format/Info : Enhanced Audio Coding 3
Format settings, Endianness : Big
Codec ID : A_EAC3
Duration : 47 min 14 s
Bit rate mode : Constant
Bit rate : 640 kb/s
Channel(s) : 6 channels
Channel positions : Front: L C R, Side: L R, LFE
Sampling rate : 48.0 kHz
Frame rate : 187.500 FPS (256 spf)
Compression mode : Lossy
Stream size : 216 MiB (13%)
Language : English
Service kind : Complete Main
Default : Yes
Forced : No

Text
ID : 3
Format : UTF-8
Codec ID : S_TEXT/UTF8
Codec ID/Info : UTF-8 Plain Text
Title : SDH
Language : English
Default : No
Forced : No





General
Unique ID : 224763085681657432310494470407324957511 (0xA917CBB3B29609E887F8C5202EA3FB47)
Complete name : D:\Downloads\The.Walking.Dead.S08E01.1080p.WEB.H264-STRiFE[rarbg]\the.walking.dead.s08e01.1080p.web.h264-strife.mkv
Format : Matroska
Format version : Version 4 / Version 2
File size : 4.85 GiB
Duration : 47 min 14 s
Overall bit rate mode : Variable
Overall bit rate : 14.7 Mb/s
Encoded date : UTC 2017-10-23 07:13:46
Writing application : mkvmerge v11.0.0 ('Alive') 64bit
Writing library : libebml v1.3.4 + libmatroska v1.4.5

Video
ID : 1
Format : AVC
Format/Info : Advanced Video Codec
Format profile : High@L4
Format settings, CABAC : Yes
Format settings, ReFrames : 4 frames
Codec ID : V_MPEG4/ISO/AVC
Duration : 47 min 14 s
Bit rate mode : Variable
Bit rate : 14.1 Mb/s
Maximum bit rate : 15.0 Mb/s
Width : 1 920 pixels
Height : 1 080 pixels
Display aspect ratio : 16:9
Frame rate mode : Constant
Frame rate : 23.976 (24000/1001) FPS
Color space : YUV
Chroma subsampling : 4:2:0
Bit depth : 8 bits
Scan type : Progressive
Bits/(Pixel*Frame) : 0.283
Stream size : 4.64 GiB (96%)
Language : English
Default : Yes
Forced : No
Color range : Limited
Color primaries : BT.709
Transfer characteristics : BT.709
Matrix coefficients : BT.709

Audio
ID : 2
Format : E-AC-3
Format/Info : Enhanced Audio Coding 3
Format settings, Endianness : Big
Codec ID : A_EAC3
Duration : 47 min 14 s
Bit rate mode : Constant
Bit rate : 640 kb/s
Channel(s) : 6 channels
Channel positions : Front: L C R, Side: L R, LFE
Sampling rate : 48.0 kHz
Frame rate : 187.500 FPS (256 spf)
Compression mode : Lossy
Stream size : 216 MiB (4%)
Language : English
Service kind : Complete Main
Default : Yes
Forced : No

Text
ID : 3
Format : UTF-8
Codec ID : S_TEXT/UTF8
Codec ID/Info : UTF-8 Plain Text
Duration : 47 min 6 s
Bit rate : 37 b/s
Count of elements : 749
Stream size : 13.1 KiB (0%)
Language : English
Default : No
Forced : No




Screenshots HDRip

The Walking Dead S08E01 (2017)

The Walking Dead S08E01 (2017)

The Walking Dead S08E01 (2017)


Screenshots WEB-DL 720p

The Walking Dead S08E01 (2017)

The Walking Dead S08E01 (2017)

The Walking Dead S08E01 (2017)


Screenshots WEB-DL 1080p

The Walking Dead S08E01 (2017)

The Walking Dead S08E01 (2017)

The Walking Dead S08E01 (2017)


Screenshots WEB-DL 720p Amazon

The Walking Dead S08E01 (2017)

The Walking Dead S08E01 (2017)

The Walking Dead S08E01 (2017)


Screenshots WEB-DL 1080p Amazon

The Walking Dead S08E01 (2017)

Mery per sempre (1989)

Mery per sempre (1989)