The Witch: Subversion / Manyeo (2018)

Posted By: Barfin
1080p (FullHD) / BDRip IMDb
The Witch: Subversion / Manyeo (2018)

The Witch: Subversion / Manyeo (2018)
WEB-DL 1080p | MKV / AVC@5614 kb/s | 1920x804 | 2h 05mn | Deutsch (dubbed): DTS, 1509 kb/s (6 ch) | Subtitles: Deutsch | 6.28 GB
Genre: Action | Mystery

Ja-yoon ist eine normale Teenagerin, die ihren Eltern auf dem ländlichen Hof zur Hand geht oder sich die Zeit mit ihrer Freundin vertreibt. Doch träumt sie von Größerem und misst sich in einem bundesweiten Talentwettbewerb, der ihr Gesicht landesweit in die Medien bringt. Kurz darauf bekommt Ja-yoon Besuch von Fremden, die behaupten, sie zu kennen. Während einer verheißungsvollen Nacht erwachen in dem Mädchen übernatürliche Kräfte, die sie vor einem grausamen Attentat bewahren.


General
Unique ID : 252688517637049505481430284233272530207 (0xBE1A09CC31A325AE80A5C9D9022D151F)
Complete name : F:\The.Witch.Subversion.2018.German.1080p.BluRay.x264.mkv
Format : Matroska
Format version : Version 4
File size : 6.28 GiB
Duration : 2 h 5 min
Overall bit rate : 7 142 kb/s
Encoded date : UTC 2019-09-17 10:28:16
Writing application : mkvmerge v7.8.0 ('River Man') 32bit built on Apr 3 2015 12:11:22
Writing library : libebml v1.3.1 + libmatroska v1.4.2

Video
ID : 1
Format : AVC
Format/Info : Advanced Video Codec
Format profile : High@L4.1
Format settings : CABAC / 5 Ref Frames
Format settings, CABAC : Yes
Format settings, ReFrames : 5 frames
Codec ID : V_MPEG4/ISO/AVC
Duration : 2 h 5 min
Bit rate : 5 614 kb/s
Width : 1 920 pixels
Height : 804 pixels
Display aspect ratio : 2.40:1
Frame rate mode : Constant
Frame rate : 23.976 (24000/1001) FPS
Color space : YUV
Chroma subsampling : 4:2:0
Bit depth : 8 bits
Scan type : Progressive
Bits/(Pixel*Frame) : 0.152
Stream size : 4.94 GiB (79%)
Writing library : x264 core 157 r2935 545de2f
Encoding settings : cabac=1 / ref=5 / deblock=1:-1:-1 / analyse=0x3:0x113 / me=umh / subme=8 / psy=1 / psy_rd=0.99:0.01 / mixed_ref=1 / me_range=16 / chroma_me=1 / trellis=1 / 8x8dct=1 / cqm=0 / deadzone=21,11 / fast_pskip=0 / chroma_qp_offset=-3 / threads=12 / lookahead_threads=2 / sliced_threads=0 / nr=0 / decimate=1 / interlaced=0 / bluray_compat=0 / constrained_intra=0 / bframes=3 / b_pyramid=2 / b_adapt=2 / b_bias=0 / direct=3 / weightb=1 / open_gop=0 / weightp=2 / keyint=240 / keyint_min=23 / scenecut=40 / intra_refresh=0 / rc_lookahead=40 / rc=crf / mbtree=1 / crf=17.0 / qcomp=0.60 / qpmin=0 / qpmax=69 / qpstep=4 / vbv_maxrate=62500 / vbv_bufsize=78125 / crf_max=0.0 / nal_hrd=none / filler=0 / ip_ratio=1.40 / aq=1:1.00
Default : Yes
Forced : No

Audio
ID : 2
Format : DTS
Format/Info : Digital Theater Systems
Codec ID : A_DTS
Duration : 2 h 5 min
Bit rate mode : Constant
Bit rate : 1 509 kb/s
Channel(s) : 6 channels
Channel layout : C L R Ls Rs LFE
Sampling rate : 48.0 kHz
Frame rate : 93.750 FPS (512 SPF)
Bit depth : 24 bits
Compression mode : Lossy
Stream size : 1.33 GiB (21%)
Language : German
Default : Yes
Forced : No

Text #1
ID : 3
Format : UTF-8
Codec ID : S_TEXT/UTF8
Codec ID/Info : UTF-8 Plain Text
Duration : 1 h 58 min
Bit rate : 0 b/s
Count of elements : 22
Stream size : 612 Bytes (0%)
Title : forced
Language : German
Default : No
Forced : No

Text #2
ID : 4
Format : PGS
Muxing mode : zlib
Codec ID : S_HDMV/PGS
Codec ID/Info : Picture based subtitle format used on BDs/HD-DVDs
Duration : 2 h 0 min
Bit rate : 17.0 kb/s
Count of elements : 2215
Stream size : 14.7 MiB (0%)
Title : complete
Language : German
Default : No
Forced : No

Menu
00:00:00.000 : en:Chapter 01
00:10:57.656 : en:Chapter 02
00:20:49.663 : en:Chapter 03
00:34:21.098 : en:Chapter 04
00:44:38.339 : en:Chapter 05
00:55:32.200 : en:Chapter 06
01:09:03.384 : en:Chapter 07
01:19:33.013 : en:Chapter 08
01:31:30.479 : en:Chapter 09
01:40:29.225 : en:Chapter 10
01:52:38.203 : en:Chapter 11
02:02:52.357 : en:Chapter 12


Screenshots

The Witch: Subversion / Manyeo (2018)

The Witch: Subversion / Manyeo (2018)

The Witch: Subversion / Manyeo (2018)