Seabiscuit (1988)

Posted By: RSU75
SD / DVDRip IMDb
Seabiscuit (1988)

Seabiscuit (1988)
DVDRip | MKV | AVC 720x480, ~ 1.8 Mbps | 0hr 53mn | 760 MB
English: AC3, 2 ch, 224 kbps
Subtitles: English
Genre: Documentary, Biography, History
IMDB Rating: 8.0/10 (83 votes)


Director: Stephen Ives
Writer: Michelle Ferrari
Stars: Scott Glenn, Seabiscuit, Laura Hillenbrand

Country: USA
Film Distributor: PBS (American Experience)

He was boxy, with stumpy legs that wouldn't completely straighten a short straggly tail and an ungainly gait; though he didn't look the part, Seabiscuit was one of the most remarkable thoroughbred racehorses in history. In the 1930s, when Americans longed to escape the grim realities of Depression-era life, four men turned Seabiscuit into a national hero. They were his fabulously wealthy owner Charles Howard, his famously silent and stubborn trainer Tom Smith and the two hard-bitten, gifted jockeys who rode him to glory. By following the paths that brought these four together and in telling the story of Seabiscuit's unlikely career, this film illuminates the precarious economic conditions that defined America in the 1930s and explores the fascinating behind-the-scenes world of thoroughbred racing. Scott Glenn narrates.




General
Unique ID : 238042041292013071583074867686638082590 (0xB3153AC2C9D47AD982CCD958AB53DA1E)
Complete name : F:\The1930s.Seabiscuit.03.Dr\The1930s.Seabiscuit.03.Dr.mkv
Format : Matroska
Format version : Version 4 / Version 2
File size : 760 MiB
Duration : 53 min 14 s
Overall bit rate : 1 996 kb/s
Movie name : Release RSU75
Encoded date : UTC 2018-12-16 19:17:15
Writing application : mkvmerge v6.6.0 ('The Edge Of The In Between') built on Dec 1 2013 17:55:00
Writing library : libebml v1.3.0 + libmatroska v1.4.1

Video
ID : 1
Format : AVC
Format/Info : Advanced Video Codec
Format profile : High@L4.1
Format settings : CABAC / 4 Ref Frames
Format settings, CABAC : Yes
Format settings, ReFrames : 4 frames
Codec ID : V_MPEG4/ISO/AVC
Duration : 53 min 14 s
Bit rate : 1 800 kb/s
Width : 720 pixels
Height : 480 pixels
Display aspect ratio : 4:3
Frame rate mode : Constant
Frame rate : 25.000 FPS
Color space : YUV
Chroma subsampling : 4:2:0
Bit depth : 8 bits
Scan type : Progressive
Bits/(Pixel*Frame) : 0.208
Stream size : 660 MiB (87%)
Writing library : x264 core 148 r2643 5c65704
Encoding settings : cabac=1 / ref=4 / deblock=1:0:0 / analyse=0x3:0x113 / me=umh / subme=8 / psy=1 / psy_rd=1.00:0.00 / mixed_ref=1 / me_range=24 / chroma_me=1 / trellis=1 / 8x8dct=1 / cqm=0 / deadzone=21,11 / fast_pskip=1 / chroma_qp_offset=-2 / threads=3 / lookahead_threads=1 / sliced_threads=0 / nr=0 / decimate=1 / interlaced=0 / bluray_compat=0 / constrained_intra=0 / bframes=3 / b_pyramid=0 / b_adapt=2 / b_bias=0 / direct=3 / weightb=1 / open_gop=0 / weightp=2 / keyint=250 / keyint_min=25 / scenecut=40 / intra_refresh=0 / rc_lookahead=40 / rc=abr / mbtree=1 / bitrate=1800 / ratetol=1.0 / qcomp=0.60 / qpmin=10 / qpmax=51 / qpstep=4 / ip_ratio=1.41 / aq=1:1.00
Language : English
Default : Yes
Forced : No

Audio
ID : 2
Format : AC-3
Format/Info : Audio Coding 3
Commercial name : Dolby Digital
Codec ID : A_AC3
Duration : 53 min 14 s
Bit rate mode : Constant
Bit rate : 224 kb/s
Channel(s) : 2 channels
Channel layout : L R
Sampling rate : 48.0 kHz
Frame rate : 31.250 FPS (1536 SPF)
Bit depth : 16 bits
Compression mode : Lossy
Stream size : 85.3 MiB (11%)
Language : English
Service kind : Complete Main
Default : Yes
Forced : No

Text
ID : 3
Format : UTF-8
Codec ID : S_TEXT/UTF8
Codec ID/Info : UTF-8 Plain Text
Language : English
Default : Yes
Forced : No

Menu
00:00:00.000 : en:Chapter 01
00:02:29.215 : en:Chapter 02
00:10:25.925 : en:Chapter 03
00:14:48.787 : en:Chapter 04
00:20:17.149 : en:Chapter 05
00:28:56.367 : en:Chapter 06
00:34:20.825 : en:Chapter 07
00:39:08.846 : en:Chapter 08
00:44:29.400 : en:Chapter 09
00:47:47.631 : en:Chapter 10
00:51:54.444 : en:Chapter 11
00:53:08.718 : en:Chapter 12




Screenshots (click to enlarge to original size):

Seabiscuit (1988)

Seabiscuit (1988)

Seabiscuit (1988)


Seabiscuit (1988)



–––––––––––––––––––––––––––––––––––––––-
>>> "Documentary" <<<OR >>> "Documentary, DVDRip" <<<OR >>> "PBS" <<<
–––––––––––––––––––––––––––––––––––––––-
>>> Visit Blog RSU75 Here <<<
–––––––––––––––––––––––––––––––––––––––-