Dilogy. The Da Vinci Code (2006) [Extended Cut] + Angels & Demons (2009) [Extended Cut]

Posted By: RSU75
Dilogy. The Da Vinci Code (2006) [Extended Cut] + Angels & Demons (2009) [Extended Cut]

The Da Vinci Code (2006) [Extended Cut]
BDRip | MKV | AVC 1280x534, ~ 5.0 Mbps | 2hr 54mn | 7.95 GB
English: DTS, 6 ch, 1510 kbps \ VORBIS, 2 ch, 80 kbps
Subtitles: English, Russian, Croatian, Danish, French, Slovenian, Spanish, Swedish, Ukrainian
Genre: Mystery, Thriller
IMDB Rating: 6.6/10 (321.645 votes)


Director: Ron Howard
Writers: Akiva Goldsman (screenplay), Dan Brown (novel)
Stars: Tom Hanks, Audrey Tautou, Jean Reno

Professor Robert Langdon is in Paris on business when he's summoned to The Louvre. A dead body has been found, setting Langdon off on an adventure as he attempts to unravel an ancient code and uncover the greatest mystery of all time.




General
Unique ID : 197270114122946465383499960363246681897 (0x9468D78CCD2088739E35F3CDFE53FF29)
Complete name : l:\TheDaV2inciCd.06.EC.7p1\TheDaV2inciCd.06.EC.7p1.mkv
Format : Matroska
Format version : Version 4 / Version 2
File size : 7.95 GiB
Duration : 2 h 54 min
Overall bit rate mode : Variable
Overall bit rate : 6 525 kb/s
Encoded date : UTC 2016-10-28 12:55:17
Writing application : mkvmerge v6.6.0 ('The Edge Of The In Between') built on Dec 1 2013 17:55:00
Writing library : libebml v1.3.0 + libmatroska v1.4.1

Video
ID : 1
Format : AVC
Format/Info : Advanced Video Codec
Format profile : Main@L4.1
Format settings, CABAC : Yes
Format settings, ReFrames : 6 frames
Codec ID : V_MPEG4/ISO/AVC
Duration : 2 h 54 min
Bit rate : 4 947 kb/s
Width : 1 280 pixels
Height : 534 pixels
Display aspect ratio : 2.40:1
Frame rate mode : Constant
Frame rate : 23.976 (24000/1001) FPS
Color space : YUV
Chroma subsampling : 4:2:0
Bit depth : 8 bits
Scan type : Progressive
Bits/(Pixel*Frame) : 0.302
Stream size : 5.86 GiB (74%)
Title : The Da Vinci Code (2006) DON
Writing library : x264 core 67 r1148M 400740b
Encoding settings : cabac=1 / ref=6 / deblock=1:-3:-3 / analyse=0x1:0x111 / me=umh / subme=9 / psy_rd=1.3:0.1 / mixed_ref=1 / me_range=42 / chroma_me=1 / trellis=2 / 8x8dct=0 / cqm=0 / deadzone=21,11 / chroma_qp_offset=-3 / threads=6 / nr=0 / decimate=0 / mbaff=0 / bframes=4 / b_pyramid=1 / b_adapt=2 / b_bias=0 / direct=3 / wpredb=1 / keyint=250 / keyint_min=25 / scenecut=40 / rc=2pass / bitrate=4947 / ratetol=1.0 / qcomp=0.60 / qpmin=10 / qpmax=51 / qpstep=4 / cplxblur=20.0 / qblur=0.5 / ip_ratio=1.40 / pb_ratio=1.30 / aq=1:0.60
Language : English
Default : Yes
Forced : No

Audio #1
ID : 2
Format : DTS
Format/Info : Digital Theater Systems
Mode : 16
Format settings, Endianness : Big
Codec ID : A_DTS
Duration : 2 h 54 min
Bit rate mode : Constant
Bit rate : 1 510 kb/s
Channel(s) : 6 channels
Channel positions : Front: L C R, Side: L R, LFE
Sampling rate : 48.0 kHz
Frame rate : 93.750 FPS (512 spf)
Bit depth : 24 bits
Compression mode : Lossy
Stream size : 1.84 GiB (23%)
Language : English
Default : Yes
Forced : No

Audio #2
ID : 3
Format : Vorbis
Format settings, Floor : 1
Codec ID : A_VORBIS
Duration : 2 h 54 min
Bit rate mode : Variable
Bit rate : 80.0 kb/s
Channel(s) : 2 channels
Sampling rate : 48.0 kHz
Compression mode : Lossy
Stream size : 99.9 MiB (1%)
Title : Commentary Vorbis 2.0, 80 Kbps
Writing application : Made with BeSweet v1.5b31
Writing library : libVorbis 1.0 (UTC 2002-07-17)
Language : English
Default : No
Forced : No
Encoded_Application/Url : http://DSPguru.doom9.org

Text #1
ID : 4
Format : ASS
Codec ID : S_TEXT/ASS
Codec ID/Info : Advanced Sub Station Alpha
Compression mode : Lossless
Title : [Forced]
Language : English
Default : No
Forced : No

Text #2
ID : 5
Format : ASS
Codec ID : S_TEXT/ASS
Codec ID/Info : Advanced Sub Station Alpha
Compression mode : Lossless
Language : English
Default : No
Forced : No

Text #3
ID : 6
Format : UTF-8
Codec ID : S_TEXT/UTF8
Codec ID/Info : UTF-8 Plain Text
Language : Russian
Default : No
Forced : No

Text #4
ID : 7
Format : UTF-8
Codec ID : S_TEXT/UTF8
Codec ID/Info : UTF-8 Plain Text
Title : Комментарии
Language : Russian
Default : No
Forced : No

Text #5
ID : 8
Format : ASS
Codec ID : S_TEXT/ASS
Codec ID/Info : Advanced Sub Station Alpha
Compression mode : Lossless
Language : Croatian
Default : No
Forced : No

Text #6
ID : 9
Format : ASS
Codec ID : S_TEXT/ASS
Codec ID/Info : Advanced Sub Station Alpha
Compression mode : Lossless
Language : Danish
Default : No
Forced : No

Text #7
ID : 10
Format : ASS
Codec ID : S_TEXT/ASS
Codec ID/Info : Advanced Sub Station Alpha
Compression mode : Lossless
Language : French
Default : No
Forced : No

Text #8
ID : 11
Format : ASS
Codec ID : S_TEXT/ASS
Codec ID/Info : Advanced Sub Station Alpha
Compression mode : Lossless
Language : Slovenian
Default : No
Forced : No

Text #9
ID : 12
Format : ASS
Codec ID : S_TEXT/ASS
Codec ID/Info : Advanced Sub Station Alpha
Compression mode : Lossless
Language : Spanish
Default : No
Forced : No

Text #10
ID : 13
Format : ASS
Codec ID : S_TEXT/ASS
Codec ID/Info : Advanced Sub Station Alpha
Compression mode : Lossless
Language : Swedish
Default : No
Forced : No

Text #11
ID : 14
Format : UTF-8
Codec ID : S_TEXT/UTF8
Codec ID/Info : UTF-8 Plain Text
Language : Ukrainian
Default : No
Forced : No




Screenshots (click to enlarge to original size):

Dilogy. The Da Vinci Code (2006) [Extended Cut] + Angels & Demons (2009) [Extended Cut]

Dilogy. The Da Vinci Code (2006) [Extended Cut] + Angels & Demons (2009) [Extended Cut]

Dilogy. The Da Vinci Code (2006) [Extended Cut] + Angels & Demons (2009) [Extended Cut]

Dilogy. The Da Vinci Code (2006) [Extended Cut] + Angels & Demons (2009) [Extended Cut]

Dilogy. The Da Vinci Code (2006) [Extended Cut] + Angels & Demons (2009) [Extended Cut]




–––––––––––––––––––––––––––––––––––––––––––––––––––––-

Dilogy. The Da Vinci Code (2006) [Extended Cut] + Angels & Demons (2009) [Extended Cut]

Angels & Demons (2009) [Extended Cut]
BDRip | MKV | AVC 1280x532, ~ 6.2 Mbps | 2hr 26mn | 7.93 GB
English: DTS, 6 ch, 1510 kbps
Subtitles: English
Genre: Mystery, Thriller
IMDB Rating: 6.7/10 (213.800 votes)


Director: Ron Howard
Writers: David Koepp, Akiva Goldsman
Stars: Tom Hanks, Ewan McGregor, Ayelet Zurer

Following the murder of a physicist, Father Silvano Bentivoglio, a symbolist, Robert Langdon, and a scientist, Vittoria Vetra, are on an adventure involving a secret brotherhood, the Illuminati. Clues lead them all around the Vatican, including the four altars of science, Earth, Air, Fire and Water. An assassin, working for the Illuminati, has captured four cardinals, and murders each, painfully. Robert and Vittoria also are searching for a new very destructive weapon that could kill millions.




General
Unique ID : 215766693683251853899064405774971627424 (0xA2532754BA6DC16DBCA886E0BCF6E7A0)
Complete name : l:\AnglsDmns.09.Ex.7p1\AnglsDmns.09.Ex.7p1.mkv
Format : Matroska
Format version : Version 4 / Version 2
File size : 7.93 GiB
Duration : 2 h 26 min
Overall bit rate : 7 758 kb/s
Encoded date : UTC 2016-10-28 15:13:56
Writing application : mkvmerge v6.6.0 ('The Edge Of The In Between') built on Dec 1 2013 17:55:00
Writing library : libebml v1.3.0 + libmatroska v1.4.1

Video
ID : 1
Format : AVC
Format/Info : Advanced Video Codec
Format profile : High@L4.1
Format settings, CABAC : Yes
Format settings, ReFrames : 8 frames
Codec ID : V_MPEG4/ISO/AVC
Duration : 2 h 26 min
Bit rate : 6 247 kb/s
Width : 1 280 pixels
Height : 532 pixels
Display aspect ratio : 2.40:1
Frame rate mode : Constant
Frame rate : 23.976 FPS
Color space : YUV
Chroma subsampling : 4:2:0
Bit depth : 8 bits
Scan type : Progressive
Bits/(Pixel*Frame) : 0.383
Stream size : 6.23 GiB (79%)
Writing library : x264 core 68 r1181M 49bf767
Encoding settings : cabac=1 / ref=8 / deblock=1:-3:-3 / analyse=0x3:0x133 / me=umh / subme=9 / psy_rd=0.9:0.8 / mixed_ref=1 / me_range=24 / chroma_me=1 / trellis=2 / 8x8dct=1 / cqm=0 / deadzone=21,11 / chroma_qp_offset=-2 / threads=6 / nr=0 / decimate=0 / mbaff=0 / bframes=4 / b_pyramid=1 / b_adapt=2 / b_bias=0 / direct=3 / wpredb=1 / keyint=250 / keyint_min=25 / scenecut=40 / rc=2pass / bitrate=6247 / ratetol=1.0 / qcomp=0.60 / qpmin=10 / qpmax=36 / qpstep=4 / cplxblur=20.0 / qblur=0.5 / ip_ratio=1.40 / pb_ratio=1.30 / aq=1:0.60
Language : English
Default : Yes
Forced : No

Audio
ID : 2
Format : DTS
Format/Info : Digital Theater Systems
Mode : 16
Format settings, Endianness : Big
Codec ID : A_DTS
Duration : 2 h 26 min
Bit rate mode : Constant
Bit rate : 1 509 kb/s
Channel(s) : 6 channels
Channel positions : Front: L C R, Side: L R, LFE
Sampling rate : 48.0 kHz
Frame rate : 93.750 FPS (512 spf)
Bit depth : 24 bits
Compression mode : Lossy
Stream size : 1.54 GiB (19%)
Language : English
Default : Yes
Forced : No

Text
ID : 3
Format : UTF-8
Codec ID : S_TEXT/UTF8
Codec ID/Info : UTF-8 Plain Text
Language : English
Default : No
Forced : No




Screenshots (click to enlarge to original size):

Dilogy. The Da Vinci Code (2006) [Extended Cut] + Angels & Demons (2009) [Extended Cut]

Dilogy. The Da Vinci Code (2006) [Extended Cut] + Angels & Demons (2009) [Extended Cut]

Dilogy. The Da Vinci Code (2006) [Extended Cut] + Angels & Demons (2009) [Extended Cut]

Dilogy. The Da Vinci Code (2006) [Extended Cut] + Angels & Demons (2009) [Extended Cut]

Dilogy. The Da Vinci Code (2006) [Extended Cut] + Angels & Demons (2009) [Extended Cut]




–––––––––––––––––––––––––––––––––––––––-
>>> Other BDRip <<<
–––––––––––––––––––––––––––––––––––––––-
>>> Visit Blog RSU75 Here <<<
–––––––––––––––––––––––––––––––––––––––-
Download:


http://nitroflare.com/view/C285164E33399F9/TheDaV2inciCd.06.EC.7p1.part01.rar
http://nitroflare.com/view/078B52DE8770843/TheDaV2inciCd.06.EC.7p1.part02.rar
http://nitroflare.com/view/ACBCD6C832400C1/TheDaV2inciCd.06.EC.7p1.part03.rar
http://nitroflare.com/view/EDD5356EB57CCA1/TheDaV2inciCd.06.EC.7p1.part04.rar
http://nitroflare.com/view/54EDC8171FD8F55/TheDaV2inciCd.06.EC.7p1.part05.rar
http://nitroflare.com/view/F6928A8F2C90776/TheDaV2inciCd.06.EC.7p1.part06.rar
http://nitroflare.com/view/18A7C8C45F05341/TheDaV2inciCd.06.EC.7p1.part07.rar
http://nitroflare.com/view/46D9A19A92AD8A4/TheDaV2inciCd.06.EC.7p1.part08.rar
http://nitroflare.com/view/0B1AE5EC0888968/TheDaV2inciCd.06.EC.7p1.part09.rar
http://nitroflare.com/view/E9C9E20B6DE8EEA/TheDaV2inciCd.06.EC.7p1.part10.rar
http://nitroflare.com/view/8646D94E65A5EB5/TheDaV2inciCd.06.EC.7p1.part11.rar
http://nitroflare.com/view/6F8C192329C5BC1/TheDaV2inciCd.06.EC.7p1.part12.rar
http://nitroflare.com/view/892C0A45E031F6F/TheDaV2inciCd.06.EC.7p1.part13.rar
http://nitroflare.com/view/28E9ADB78235B52/TheDaV2inciCd.06.EC.7p1.part14.rar
http://nitroflare.com/view/33244EC34029DA3/TheDaV2inciCd.06.EC.7p1.part15.rar
http://nitroflare.com/view/14957A62D81D224/TheDaV2inciCd.06.EC.7p1.part16.rar
http://nitroflare.com/view/FFA13D40A339874/TheDaV2inciCd.06.EC.7p1.part17.rar

http://nitroflare.com/view/7F485B2F7702641/AnglsDmns.09.Ex.7p1.part01.rar
http://nitroflare.com/view/0C1A906EC24FE48/AnglsDmns.09.Ex.7p1.part02.rar
http://nitroflare.com/view/66BA94DA67D7446/AnglsDmns.09.Ex.7p1.part03.rar
http://nitroflare.com/view/6D2163042D34F20/AnglsDmns.09.Ex.7p1.part04.rar
http://nitroflare.com/view/928CF3C5FE74CB4/AnglsDmns.09.Ex.7p1.part05.rar
http://nitroflare.com/view/22CD061C73B527B/AnglsDmns.09.Ex.7p1.part06.rar
http://nitroflare.com/view/9581745DFD04CFA/AnglsDmns.09.Ex.7p1.part07.rar
http://nitroflare.com/view/5AEA99F1D52FA97/AnglsDmns.09.Ex.7p1.part08.rar
http://nitroflare.com/view/2D973E148D707AF/AnglsDmns.09.Ex.7p1.part09.rar
http://nitroflare.com/view/FF50B892582BF12/AnglsDmns.09.Ex.7p1.part10.rar
http://nitroflare.com/view/6890FDE76CECED2/AnglsDmns.09.Ex.7p1.part11.rar
http://nitroflare.com/view/25F522D4DF5721A/AnglsDmns.09.Ex.7p1.part12.rar
http://nitroflare.com/view/C10725BE124F738/AnglsDmns.09.Ex.7p1.part13.rar
http://nitroflare.com/view/4175BB640E720AE/AnglsDmns.09.Ex.7p1.part14.rar
http://nitroflare.com/view/2FCF5C779747D4A/AnglsDmns.09.Ex.7p1.part15.rar
http://nitroflare.com/view/A9210516799B555/AnglsDmns.09.Ex.7p1.part16.rar
http://nitroflare.com/view/FEDAE78E2FE8752/AnglsDmns.09.Ex.7p1.part17.rar