Tags
Language
Tags

The Irishman (2019) [Criterion Collection]

Posted By: RSU75
1080p (FullHD) / BDRip IMDb
The Irishman (2019) [Criterion Collection]

The Irishman (2019) [Criterion Collection, Spine #1058]
BDRip 1080p | MKV | AVC 1920x1040, ~ 4.1 Mbps | 3hr 29mn | 6.66 GB
English: AC3, 6 ch, 448 kbps; English: AC3, 2 ch, 192 kbps
BDRip 720p | MKV | AVC 1280x692, ~ 2.9 Mbps | 3hr 29mn | 4.99 GB
English: AC3, 6 ch, 448 kbps; English: AC3, 2 ch, 192 kbps
Subtitles: English
Genre: Biography, Crime, Drama



Director: Martin Scorsese
Writers: Steven Zaillian (screenplay by), Charles Brandt (based upon the book by)
Stars: Robert De Niro, Al Pacino, Joe Pesci

Martin Scorsese’s cinematic mastery is on full display in this sweeping crime saga, which serves as an elegiac summation of his six-decade career. Left behind by the world, former hit man and union truck driver Frank Sheeran (Robert DeNiro) looks back from a nursing home on his life’s journey through the ranks of organized crime: from his involvement with Philadelphia mob boss Russell Bufalino (Joe Pesci) to his association with Teamsters union head Jimmy Hoffa (Al Pacino) to the rift that forced him to choose between the two. An intimate story of loyalty and betrayal writ large across the epic canvas of mid-twentieth-century American history, The Irishman (based on the real-life Sheeran’s confessions, as told to writer Charles Brandt for the book I Heard You Paint Houses) is a uniquely reflective late-career triumph that balances its director’s virtuoso set pieces with a profoundly personal rumination on aging, mortality, and the decisions and regrets that shape a life.

Extras:
- None




General
Unique ID : 209874176175048591395640897744765502702 (0x9DE44BC99972BD99AAC6538B70C4C4EE)
Complete name : F:\TheIrishman.2019.Cr.1p\TheIrishman.2019.Cr.1p.mkv
Format : Matroska
Format version : Version 4
File size : 6.66 GiB
Duration : 3 h 29 min
Overall bit rate : 4 560 kb/s
Movie name : Release RSU75
Encoded date : UTC 2020-11-21 19:13:23
Writing application : mkvmerge v6.6.0 ('The Edge Of The In Between') built on Dec 1 2013 17:55:00
Writing library : libebml v1.3.0 + libmatroska v1.4.1

Video
ID : 1
Format : AVC
Format/Info : Advanced Video Codec
Format profile : High@L4.1
Format settings : CABAC / 4 Ref Frames
Format settings, CABAC : Yes
Format settings, Reference fra : 4 frames
Codec ID : V_MPEG4/ISO/AVC
Duration : 3 h 29 min
Bit rate : 3 829 kb/s
Nominal bit rate : 4 100 kb/s
Width : 1 920 pixels
Height : 1 040 pixels
Display aspect ratio : 1.85:1
Frame rate mode : Constant
Frame rate : 23.976 (23976/1000) FPS
Color space : YUV
Chroma subsampling : 4:2:0
Bit depth : 8 bits
Scan type : Progressive
Bits/(Pixel*Frame) : 0.080
Stream size : 5.59 GiB (84%)
Writing library : x264 core 148 r2643 5c65704
Encoding settings : cabac=1 / ref=4 / deblock=1:0:0 / analyse=0x3:0x113 / me=umh / subme=8 / psy=1 / psy_rd=1.00:0.00 / mixed_ref=1 / me_range=24 / chroma_me=1 / trellis=1 / 8x8dct=1 / cqm=0 / deadzone=21,11 / fast_pskip=1 / chroma_qp_offset=-2 / threads=3 / lookahead_threads=1 / sliced_threads=0 / nr=0 / decimate=1 / interlaced=0 / bluray_compat=0 / constrained_intra=0 / bframes=3 / b_pyramid=0 / b_adapt=2 / b_bias=0 / direct=3 / weightb=1 / open_gop=0 / weightp=2 / keyint=250 / keyint_min=25 / scenecut=40 / intra_refresh=0 / rc_lookahead=40 / rc=abr / mbtree=1 / bitrate=4100 / ratetol=1.0 / qcomp=0.60 / qpmin=10 / qpmax=51 / qpstep=4 / ip_ratio=1.41 / aq=1:1.00
Language : English
Default : Yes
Forced : No
Duration_Source : General_Duration

Audio #1
ID : 2
Format : AC-3
Format/Info : Audio Coding 3
Commercial name : Dolby Digital
Codec ID : A_AC3
Duration : 3 h 29 min
Bit rate mode : Constant
Bit rate : 448 kb/s
Channel(s) : 6 channels
Channel layout : L R C LFE Ls Rs
Sampling rate : 48.0 kHz
Frame rate : 31.250 FPS (1536 SPF)
Compression mode : Lossy
Stream size : 670 MiB (10%)
Title : Surround 5.1
Language : English
Service kind : Complete Main
Default : Yes
Forced : No
Duration_Source : General_Duration

Audio #2
ID : 3
Format : AC-3
Format/Info : Audio Coding 3
Commercial name : Dolby Digital
Codec ID : A_AC3
Duration : 3 h 29 min
Bit rate mode : Constant
Bit rate : 192 kb/s
Channel(s) : 2 channels
Channel layout : L R
Sampling rate : 48.0 kHz
Frame rate : 31.250 FPS (1536 SPF)
Compression mode : Lossy
Stream size : 287 MiB (4%)
Title : Stereo
Language : English
Service kind : Complete Main
Default : No
Forced : No
Duration_Source : General_Duration

Text
ID : 4
Format : PGS
Muxing mode : zlib
Codec ID : S_HDMV/PGS
Codec ID/Info : Picture based subtitle format used on BDs/HD-DVDs
Language : English
Default : No
Forced : No

Menu
00:00:00.000 : en:Chapter 01
00:04:37.735 : en:Chapter 02
00:08:42.271 : en:Chapter 03
00:12:11.647 : en:Chapter 04
00:17:37.014 : en:Chapter 05
00:25:13.553 : en:Chapter 06
00:29:41.070 : en:Chapter 07
00:39:21.442 : en:Chapter 08
00:46:31.622 : en:Chapter 09
00:54:23.009 : en:Chapter 10
00:59:44.289 : en:Chapter 11
01:11:16.438 : en:Chapter 12
01:22:17.933 : en:Chapter 13
01:31:00.621 : en:Chapter 14
01:38:54.428 : en:Chapter 15
01:48:45.519 : en:Chapter 16
01:58:00.865 : en:Chapter 17
02:07:42.237 : en:Chapter 18
02:13:30.752 : en:Chapter 19
02:24:02.550 : en:Chapter 20
02:31:10.811 : en:Chapter 21
02:34:28.384 : en:Chapter 22
02:50:19.292 : en:Chapter 23
02:55:26.390 : en:Chapter 24
03:04:12.249 : en:Chapter 25
03:13:43.361 : en:Chapter 26
03:19:21.574 : en:Chapter 27





General
Unique ID : 177987490735423342303112376234807957605 (0x85E724D0F3F7D18AB8DCCA113D089865)
Complete name : F:\TheIrishman.2019.Cr.7p\TheIrishman.2019.Cr.7p.mkv
Format : Matroska
Format version : Version 4
File size : 4.99 GiB
Duration : 3 h 29 min
Overall bit rate : 3 417 kb/s
Movie name : Release RSU75
Encoded date : UTC 2020-11-21 19:04:20
Writing application : mkvmerge v6.6.0 ('The Edge Of The In Between') built on Dec 1 2013 17:55:00
Writing library : libebml v1.3.0 + libmatroska v1.4.1

Video
ID : 1
Format : AVC
Format/Info : Advanced Video Codec
Format profile : High@L4.1
Format settings : CABAC / 4 Ref Frames
Format settings, CABAC : Yes
Format settings, Reference fra : 4 frames
Codec ID : V_MPEG4/ISO/AVC
Duration : 3 h 29 min
Bit rate : 2 709 kb/s
Nominal bit rate : 2 900 kb/s
Width : 1 280 pixels
Height : 692 pixels
Display aspect ratio : 1.85:1
Frame rate mode : Constant
Frame rate : 23.976 (23976/1000) FPS
Color space : YUV
Chroma subsampling : 4:2:0
Bit depth : 8 bits
Scan type : Progressive
Bits/(Pixel*Frame) : 0.128
Stream size : 3.96 GiB (79%)
Writing library : x264 core 148 r2643 5c65704
Encoding settings : cabac=1 / ref=4 / deblock=1:0:0 / analyse=0x3:0x113 / me=umh / subme=8 / psy=1 / psy_rd=1.00:0.00 / mixed_ref=1 / me_range=24 / chroma_me=1 / trellis=1 / 8x8dct=1 / cqm=0 / deadzone=21,11 / fast_pskip=1 / chroma_qp_offset=-2 / threads=3 / lookahead_threads=1 / sliced_threads=0 / nr=0 / decimate=1 / interlaced=0 / bluray_compat=0 / constrained_intra=0 / bframes=3 / b_pyramid=0 / b_adapt=2 / b_bias=0 / direct=3 / weightb=1 / open_gop=0 / weightp=2 / keyint=250 / keyint_min=25 / scenecut=40 / intra_refresh=0 / rc_lookahead=40 / rc=abr / mbtree=1 / bitrate=2900 / ratetol=1.0 / qcomp=0.60 / qpmin=10 / qpmax=51 / qpstep=4 / ip_ratio=1.41 / aq=1:1.00
Language : English
Default : Yes
Forced : No
Duration_Source : General_Duration

Audio #1
ID : 2
Format : AC-3
Format/Info : Audio Coding 3
Commercial name : Dolby Digital
Codec ID : A_AC3
Duration : 3 h 29 min
Bit rate mode : Constant
Bit rate : 448 kb/s
Channel(s) : 6 channels
Channel layout : L R C LFE Ls Rs
Sampling rate : 48.0 kHz
Frame rate : 31.250 FPS (1536 SPF)
Compression mode : Lossy
Stream size : 670 MiB (13%)
Title : Surround 5.1
Language : English
Service kind : Complete Main
Default : Yes
Forced : No
Duration_Source : General_Duration

Audio #2
ID : 3
Format : AC-3
Format/Info : Audio Coding 3
Commercial name : Dolby Digital
Codec ID : A_AC3
Duration : 3 h 29 min
Bit rate mode : Constant
Bit rate : 192 kb/s
Channel(s) : 2 channels
Channel layout : L R
Sampling rate : 48.0 kHz
Frame rate : 31.250 FPS (1536 SPF)
Compression mode : Lossy
Stream size : 287 MiB (6%)
Title : Stereo
Language : English
Service kind : Complete Main
Default : No
Forced : No
Duration_Source : General_Duration

Text
ID : 4
Format : PGS
Muxing mode : zlib
Codec ID : S_HDMV/PGS
Codec ID/Info : Picture based subtitle format used on BDs/HD-DVDs
Language : English
Default : No
Forced : No

Menu
00:00:00.000 : en:Chapter 01
00:04:37.735 : en:Chapter 02
00:08:42.271 : en:Chapter 03
00:12:11.647 : en:Chapter 04
00:17:37.014 : en:Chapter 05
00:25:13.553 : en:Chapter 06
00:29:41.070 : en:Chapter 07
00:39:21.442 : en:Chapter 08
00:46:31.622 : en:Chapter 09
00:54:23.009 : en:Chapter 10
00:59:44.289 : en:Chapter 11
01:11:16.438 : en:Chapter 12
01:22:17.933 : en:Chapter 13
01:31:00.621 : en:Chapter 14
01:38:54.428 : en:Chapter 15
01:48:45.519 : en:Chapter 16
01:58:00.865 : en:Chapter 17
02:07:42.237 : en:Chapter 18
02:13:30.752 : en:Chapter 19
02:24:02.550 : en:Chapter 20
02:31:10.811 : en:Chapter 21
02:34:28.384 : en:Chapter 22
02:50:19.292 : en:Chapter 23
02:55:26.390 : en:Chapter 24
03:04:12.249 : en:Chapter 25
03:13:43.361 : en:Chapter 26
03:19:21.574 : en:Chapter 27




Screenshots 1080p (click to enlarge to original size):

The Irishman (2019) [Criterion Collection]

The Irishman (2019) [Criterion Collection]

The Irishman (2019) [Criterion Collection]



Screenshots 720p (click to enlarge to original size):

The Irishman (2019) [Criterion Collection]





More in My Blog



If you like this release please visit my blog
In it you will find ALL the latest Criterion Collection releases