The Ornithologist / O Ornitólogo (2016)

Posted By: RSU75
SD / DVDRip IMDb
The Ornithologist / O Ornitólogo (2016)

The Ornithologist / O Ornitólogo (2016)
DVDRip | MKV | AVC 720x424, ~ 1.6 Mbps | 1hr 53mn | 1.30 GB
Portuguese: AC3, 6 ch, 448 kbps
Subtitles: English, French
Genre: Adventure, Drama, Mystery
IMDB Rating: 6.5/10 (1.441 votes)


Director: João Pedro Rodrigues
Writers: João Pedro Rodrigues
Stars: Paul Hamy, Xelo Cagiao, João Pedro Rodrigues

Fernando, a solitary ornithologist, is looking for black storks when he is swept away by the rapids. Rescued by a couple of Chinese pilgrims, he plunges into an eerie and dark forest, trying to get back on his track.




General
Unique ID : 177528868038355837343507886819474380321 (0x858ED0F8B294CC51AECAF686EFFB9621)
Complete name : M:\TheOrnithologist.16.Dr\TheOrnithologist.16.Dr.mkv
Format : Matroska
Format version : Version 4 / Version 2
File size : 1.62 GiB
Duration : 1 h 53 min
Overall bit rate : 2 048 kb/s
Movie name : Release RSU75
Encoded date : UTC 2017-12-05 05:12:38
Writing application : mkvmerge v6.6.0 ('The Edge Of The In Between') built on Dec 1 2013 17:55:00
Writing library : libebml v1.3.0 + libmatroska v1.4.1

Video
ID : 1
Format : AVC
Format/Info : Advanced Video Codec
Format profile : High@L3
Format settings : CABAC / 4 Ref Frames
Format settings, CABAC : Yes
Format settings, RefFrames : 4 frames
Codec ID : V_MPEG4/ISO/AVC
Duration : 1 h 53 min
Bit rate : 1 600 kb/s
Width : 720 pixels
Height : 424 pixels
Display aspect ratio : 2.40:1
Original display aspect rat : 2.40:1
Frame rate mode : Constant
Frame rate : 25.000 FPS
Color space : YUV
Chroma subsampling : 4:2:0
Bit depth : 8 bits
Scan type : Progressive
Bits/(Pixel*Frame) : 0.210
Stream size : 1.23 GiB (76%)
Writing library : x264 core 144 r2533 c8a773e
Encoding settings : cabac=1 / ref=4 / deblock=1:0:0 / analyse=0x3:0x113 / me=umh / subme=8 / psy=1 / psy_rd=1.00:0.00 / mixed_ref=1 / me_range=24 / chroma_me=1 / trellis=1 / 8x8dct=1 / cqm=0 / deadzone=21,11 / fast_pskip=1 / chroma_qp_offset=-2 / threads=3 / lookahead_threads=1 / sliced_threads=0 / nr=0 / decimate=1 / interlaced=0 / bluray_compat=0 / constrained_intra=0 / bframes=3 / b_pyramid=0 / b_adapt=2 / b_bias=0 / direct=3 / weightb=1 / open_gop=0 / weightp=2 / keyint=250 / keyint_min=25 / scenecut=40 / intra_refresh=0 / rc_lookahead=40 / rc=abr / mbtree=1 / bitrate=1600 / ratetol=1.0 / qcomp=0.60 / qpmin=10 / qpmax=51 / qpstep=4 / ip_ratio=1.41 / aq=1:1.00
Language : Portuguese
Default : Yes
Forced : No

Audio
ID : 2
Format : AC-3
Format/Info : Audio Coding 3
Format settings, Endianness : Big
Codec ID : A_AC3
Duration : 1 h 53 min
Bit rate mode : Constant
Bit rate : 448 kb/s
Channel(s) : 6 channels
Channel positions : Front: L C R, Side: L R, LFE
Sampling rate : 48.0 kHz
Frame rate : 31.250 FPS (1536 SPF)
Bit depth : 16 bits
Compression mode : Lossy
Delay relative to video : -40 ms
Stream size : 363 MiB (22%)
Language : Portuguese
Service kind : Complete Main
Default : Yes
Forced : No

Text #1
ID : 3
Format : VobSub
Muxing mode : zlib
Codec ID : S_VOBSUB
Codec ID/Info : Picture based subtitle format used on DVDs
Language : French
Default : No
Forced : No

Text #2
ID : 4
Format : VobSub
Muxing mode : zlib
Codec ID : S_VOBSUB
Codec ID/Info : Picture based subtitle format used on DVDs
Language : English
Default : Yes
Forced : No

Text #3
ID : 5
Format : VobSub
Muxing mode : zlib
Codec ID : S_VOBSUB
Codec ID/Info : Picture based subtitle format used on DVDs
Language : English
Default : No
Forced : No

Menu
00:00:00.000 : en:Chapter 01
00:16:19.440 : en:Chapter 02
00:31:15.160 : en:Chapter 03
00:50:00.120 : en:Chapter 04
01:02:33.560 : en:Chapter 05
01:16:17.920 : en:Chapter 06
01:35:20.000 : en:Chapter 07
01:47:44.240 : en:Chapter 08





Screenshots (click to enlarge to original size):

The Ornithologist / O Ornitólogo (2016)

The Ornithologist / O Ornitólogo (2016)

The Ornithologist / O Ornitólogo (2016)

The Ornithologist / O Ornitólogo (2016)

The Ornithologist / O Ornitólogo (2016)




–––––––––––––––––––––––––––––––––––––––-
>>> "DVDRip" <<<OR >>> "Portuguese" <<<
–––––––––––––––––––––––––––––––––––––––-
>>> Visit Blog RSU75 Here <<<
–––––––––––––––––––––––––––––––––––––––-