Tags
Language
Tags

The 72nd Primetime Emmy Awards (2020)

Posted By: Without
720p (HD) / WEBRip IMDb
The 72nd Primetime Emmy Awards (2020)

The 72nd Primetime Emmy Awards (2020)
WEBRip | MKV | 2 h 11 min | 1021 MB | 704x396 | AVC@824 kb/s | English AC3@256 kb/s, 6 ch
WEBRip 720p | MKV | 2 h 11 min | 2.66 GB | 1280x720 | AVC@2633 kb/s | English AC3@256 kb/s, 6 ch
Subs: English
Genre: News, Reality-TV

Bodies are turning up around the city, each having met a uniquely gruesome demise. As the investigation proceeds, evidence points to one suspect: John Kramer, the man known as Jigsaw, who has been dead for ten years.



General
The.72nd.Annual.Primetime.Emmy.Awards.HULU.WEB-DL.DDP5.1.H.264-BTW.mkv
Format : Matroska
Format version : Version 4 / Version 2
File size : 1021 MB
Duration : 2 h 11 min
Overall bit rate : 1082 kb/s
Encoded date : UTC 2020-09-22 15:28:08
Writing application : mkvmerge v38.0.0 ('The Silent Type') 64-bit
Writing library : libebml v1.3.9 + libmatroska v1.5.2

Video
ID : 1
Format : AVC
Format/Info : Advanced Video Codec
Format profile : High@L3
Format settings, CABAC : Yes
Format settings, ReFrames : 5 frames
Codec ID : V_MPEG4/ISO/AVC
Duration : 2 h 11 min
Bit rate : 824 kb/s
Width : 704 pixels
Height : 396 pixels
Display aspect ratio : 16:9
Frame rate mode : Constant
Frame rate : 29.970 (30000/1001) FPS
Color space : YUV
Chroma subsampling : 4:2:0
Bit depth : 8 bits
Scan type : Progressive
Bits/(Pixel*Frame) : 0.099
Stream size : 777 MB (76%)
Default : Yes
Forced : No

Audio
ID : 2
Format : E-AC-3
Format/Info : Enhanced Audio Coding 3
Format settings, Endianness : Big
Codec ID : A_EAC3
Duration : 2 h 11 min
Bit rate mode : Constant
Bit rate : 256 kb/s
Channel(s) : 6 channels
Channel positions : Front: L C R, Side: L R, LFE
Sampling rate : 48.0 kHz
Frame rate : 187.500 FPS (256 spf)
Compression mode : Lossy
Stream size : 241 MB (24%)
Language : English
Default : Yes
Forced : No

Text
ID : 3
Format : UTF-8
Codec ID : S_TEXT/UTF8
Codec ID/Info : UTF-8 Plain Text
Duration : 2 h 10 min
Bit rate : 80 b/s
Count of elements : 1926
Stream size : 77.5 KiB (0%)
Language : English
Default : No
Forced : No


General
The.72nd.Annual.Primetime.Emmy.Awards.720p.HULU.WEB-DL.DDP5.1.H.264-NTb.mkv
Format : Matroska
Format version : Version 4 / Version 2
File size : 2.66 GB
Duration : 2 h 11 min
Overall bit rate : 2891 kb/s
Encoded date : UTC 2020-09-22 14:57:13
Writing application : mkvmerge v38.0.0 ('The Silent Type') 64-bit
Writing library : libebml v1.3.9 + libmatroska v1.5.2

Video
ID : 1
Format : AVC
Format/Info : Advanced Video Codec
Format profile : High@L3.1
Format settings, CABAC : Yes
Format settings, ReFrames : 5 frames
Codec ID : V_MPEG4/ISO/AVC
Duration : 2 h 11 min
Bit rate : 2633 kb/s
Width : 1280 pixels
Height : 720 pixels
Display aspect ratio : 16:9
Frame rate mode : Constant
Frame rate : 29.970 (30000/1001) FPS
Color space : YUV
Chroma subsampling : 4:2:0
Bit depth : 8 bits
Scan type : Progressive
Bits/(Pixel*Frame) : 0.095
Stream size : 2.42 GB (91%)
Default : Yes
Forced : No

Audio
ID : 2
Format : E-AC-3
Format/Info : Enhanced Audio Coding 3
Format settings, Endianness : Big
Codec ID : A_EAC3
Duration : 2 h 11 min
Bit rate mode : Constant
Bit rate : 256 kb/s
Channel(s) : 6 channels
Channel positions : Front: L C R, Side: L R, LFE
Sampling rate : 48.0 kHz
Frame rate : 187.500 FPS (256 spf)
Compression mode : Lossy
Stream size : 241 MB (9%)
Language : English
Default : Yes
Forced : No

Text
ID : 3
Format : UTF-8
Codec ID : S_TEXT/UTF8
Codec ID/Info : UTF-8 Plain Text
Duration : 2 h 10 min
Bit rate : 80 b/s
Count of elements : 1926
Stream size : 77.5 KiB (0%)
Language : English
Default : No
Forced : No



WEBRip Screenshots

The 72nd Primetime Emmy Awards (2020)

The 72nd Primetime Emmy Awards (2020)

The 72nd Primetime Emmy Awards (2020)

The 72nd Primetime Emmy Awards (2020)


WEBRip 720p Screenshots

The 72nd Primetime Emmy Awards (2020)

The 72nd Primetime Emmy Awards (2020)

The 72nd Primetime Emmy Awards (2020)

The 72nd Primetime Emmy Awards (2020)


Come Visit My Blog (•‿•)