The Big Bus (1976)

Posted By: Without
1080p (FullHD) / WEB-DL IMDb
The Big Bus (1976)

The Big Bus (1976)
WEB-DL 1080p | MKV | 1920x1080 | AVC@10.1 Mb/s | English AC3@224 kb/s | 2 channels | 1 h 28 min | 6.36 GB
Subs: English
Genre: Comedy | Action

The ultimate disaster film parody. A nuclear powered bus is going Non-stop from New York to Denver and is plagued by disasters due to the machinations of a mysterious group allied with the Oil lobby. When the driver is injured a washed up, down on his luck, but used to be great type, who as it happens, used to be engaged to the inventor's daughter is brought in to drive the giant bus which includes a one lane swimming pool and a one lane bowling alley.

IMDB - 1 win.


General
The.Big.Bus.1976.1080p.AMZN.WEB-DL.DDP2.0.H.264-NTb.mkv
Format : Matroska
Format version : Version 4 / Version 2
File size : 6.36 GiB
Duration : 1 h 28 min
Overall bit rate : 10.3 Mb/s
Encoded date : UTC 2018-12-05 17:14:50
Writing application : mkvmerge v29.0.0 ('Like It Or Not') 64-bit
Writing library : libebml v1.3.6 + libmatroska v1.4.9

Video
ID : 1
Format : AVC
Format/Info : Advanced Video Codec
Format profile : High@L4
Format settings, CABAC : Yes
Format settings, ReFrames : 4 frames
Codec ID : V_MPEG4/ISO/AVC
Duration : 1 h 28 min
Bit rate : 10.1 Mb/s
Width : 1 920 pixels
Height : 1 080 pixels
Display aspect ratio : 16:9
Frame rate mode : Constant
Frame rate : 23.976 (24000/1001) FPS
Color space : YUV
Chroma subsampling : 4:2:0
Bit depth : 8 bits
Scan type : Progressive
Bits/(Pixel*Frame) : 0.202
Stream size : 6.22 GiB (98%)
Default : Yes
Forced : No
Color range : Limited
Color primaries : BT.709
Transfer characteristics : BT.709
Matrix coefficients : BT.709

Audio
ID : 2
Format : E-AC-3
Format/Info : Enhanced Audio Coding 3
Format settings, Endianness : Big
Codec ID : A_EAC3
Duration : 1 h 28 min
Bit rate mode : Constant
Bit rate : 224 kb/s
Channel(s) : 2 channels
Channel positions : Front: L R
Sampling rate : 48.0 kHz
Frame rate : 187.500 FPS (256 spf)
Compression mode : Lossy
Stream size : 142 MiB (2%)
Language : English
Default : Yes
Forced : No

Text
ID : 3
Format : UTF-8
Codec ID : S_TEXT/UTF8
Codec ID/Info : UTF-8 Plain Text
Duration : 1 h 20 min
Bit rate : 79 b/s
Count of elements : 1407
Stream size : 47.0 KiB (0%)
Title : SDH
Language : English
Default : No
Forced : No



WEB-DL 1080p Screenshots

The Big Bus (1976)

The Big Bus (1976)

The Big Bus (1976)


Come Visit My Blog (•‿•)