The Comedian's Guide to Survival (2016)

Posted By: Without
The Comedian's Guide to Survival (2016)

The Comedian's Guide to Survival (2016)
HDRip | AVI | 640x272 | XviD@884 kb/s | English MP3@128 kb/s | 2 channels | 1 h 35 min | 700 MB
Genre: Comedy

One man's journey around the world to discover the secret of comedy.



General
Complete name : The.Comedian's.Guide.to.Survival.2016.HDRip.XViD-ETRG\The.Comedian's.Guide.to.Survival.2016.HDRip.XViD-ETRG.avi
Format : AVI
Format/Info : Audio Video Interleave
File size : 699 MiB
Duration : 1 h 35 min
Overall bit rate : 1 021 kb/s
Writing application : VirtualDubMod 1.5.10.2 (build 2540/release)
Writing library : VirtualDubMod build 2540/release

Video
ID : 0
Format : MPEG-4 Visual
Format profile : Advanced Simple@L5
Format settings, BVOP : 2
Format settings, QPel : No
Format settings, GMC : No warppoints
Format settings, Matrix : Default (H.263)
Muxing mode : Packed bitstream
Codec ID : XVID
Codec ID/Hint : XviD
Duration : 1 h 35 min
Bit rate : 884 kb/s
Width : 640 pixels
Height : 272 pixels
Display aspect ratio : 2.35:1
Frame rate : 24.000 FPS
Color space : YUV
Chroma subsampling : 4:2:0
Bit depth : 8 bits
Scan type : Progressive
Compression mode : Lossy
Bits/(Pixel*Frame) : 0.211
Stream size : 605 MiB (87%)
Writing library : XviD 64

Audio
ID : 1
Format : MPEG Audio
Format version : Version 1
Format profile : Layer 3
Mode : Joint stereo
Mode extension : MS Stereo
Codec ID : 55
Codec ID/Hint : MP3
Duration : 1 h 35 min
Bit rate mode : Constant
Bit rate : 128 kb/s
Channel(s) : 2 channels
Sampling rate : 48.0 kHz
Compression mode : Lossy
Stream size : 87.6 MiB (13%)
Alignment : Aligned on interleaves
Interleave, duration : 42 ms (1.00 video frame)
Interleave, preload duration : 504 ms
Writing library : LAME3.99r
Encoding settings : -m j -V 4 -q 3 -lowpass 17 -b 128


HDRip Screenshots

The Comedian's Guide to Survival (2016)

The Comedian's Guide to Survival (2016)

The Comedian's Guide to Survival (2016)


Come Visit My Blog (•‿•)