Subcategories

The Curse of Sleeping Beauty (2016)

Posted By: Without
The Curse of Sleeping Beauty (2016)

The Curse of Sleeping Beauty (2016)
BRRip | AVI | 720x304 | XviD@1488 kb/s | English AC3@448 kb/s | 6 channels | 1 h 26 min | 1.17 GB
BDRip 720p | MKV | 1280x544 | AVC@6483 kb/s | English DTS@768 kb/s | 6 channels | 1 h 26 min | 4.37 GB
Genre: Fantasy, Mystery, Thriller

Thomas unexpectedly inherits a property with a mysterious curse.



General
The.Curse.of.Sleeping.Beauty.2016.BRRip.XviD.AC3-EVO\The.Curse.of.Sleeping.Beauty.2016.BRRip.XviD.AC3-EVO.avi
Format : AVI
Format/Info : Audio Video Interleave
File size : 1.17 GiB
Duration : 1 h 26 min
Overall bit rate : 1 946 kb/s
Writing library : VirtualDub build 32593/release

Video
ID : 0
Format : MPEG-4 Visual
Format profile : Advanced Simple@L5
Format settings, BVOP : 2
Format settings, QPel : No
Format settings, GMC : No warppoints
Format settings, Matrix : Default (H.263)
Muxing mode : Packed bitstream
Codec ID : XVID
Codec ID/Hint : XviD
Duration : 1 h 26 min
Bit rate : 1 488 kb/s
Width : 720 pixels
Height : 304 pixels
Display aspect ratio : 2.35:1
Frame rate : 23.976 (24000/1001) FPS
Color space : YUV
Chroma subsampling : 4:2:0
Bit depth : 8 bits
Scan type : Progressive
Compression mode : Lossy
Bits/(Pixel*Frame) : 0.284
Stream size : 918 MiB (76%)
Writing library : XviD 66

Audio
ID : 1
Format : AC-3
Format/Info : Audio Coding 3
Mode extension : CM (complete main)
Format settings, Endianness : Big
Codec ID : 2000
Duration : 1 h 26 min
Bit rate mode : Constant
Bit rate : 448 kb/s
Channel(s) : 6 channels
Channel positions : Front: L C R, Side: L R, LFE
Sampling rate : 48.0 kHz
Frame rate : 31.250 FPS (1536 spf)
Bit depth : 16 bits
Compression mode : Lossy
Stream size : 276 MiB (23%)
Alignment : Aligned on interleaves
Interleave, duration : 42 ms (1.00 video frame)
Interleave, preload duration : 512 ms

General
The.Curse.of.Sleeping.Beauty.2016.720p.BluRay.x264-RUSTED\rusted-the.curse.of.the.living.beauty.720p.bluray.x264.mkv
Format : Matroska
Format version : Version 4 / Version 2
File size : 4.37 GiB
Duration : 1 h 26 min
Overall bit rate : 7 253 kb/s
Encoded date : UTC 2017-08-03 15:21:26
Writing application : mkvmerge v11.0.0 ('Alive') 64bit
Writing library : libebml v1.3.4 + libmatroska v1.4.5

Video
ID : 1
Format : AVC
Format/Info : Advanced Video Codec
Format profile : High@L4.1
Format settings, CABAC : Yes
Format settings, ReFrames : 5 frames
Codec ID : V_MPEG4/ISO/AVC
Duration : 1 h 26 min
Bit rate : 6 483 kb/s
Width : 1 280 pixels
Height : 544 pixels
Display aspect ratio : 2.35:1
Frame rate mode : Constant
Frame rate : 23.976 (24000/1001) FPS
Color space : YUV
Chroma subsampling : 4:2:0
Bit depth : 8 bits
Scan type : Progressive
Bits/(Pixel*Frame) : 0.388
Stream size : 3.90 GiB (89%)
Writing library : x264 core 152 r2851 ba24899
Encoding settings : cabac=1 / ref=5 / deblock=1:1:1 / analyse=0x3:0x133 / me=umh / subme=8 / psy=1 / psy_rd=1.00:0.00 / mixed_ref=1 / me_range=16 / chroma_me=1 / trellis=1 / 8x8dct=1 / cqm=0 / deadzone=21,11 / fast_pskip=0 / chroma_qp_offset=-2 / threads=16 / lookahead_threads=2 / sliced_threads=0 / nr=0 / decimate=1 / interlaced=0 / bluray_compat=0 / constrained_intra=0 / bframes=3 / b_pyramid=2 / b_adapt=2 / b_bias=0 / direct=3 / weightb=1 / open_gop=0 / weightp=2 / keyint=250 / keyint_min=23 / scenecut=40 / intra_refresh=0 / rc_lookahead=50 / rc=2pass / mbtree=1 / bitrate=6483 / ratetol=1.0 / qcomp=0.60 / qpmin=0 / qpmax=69 / qpstep=4 / cplxblur=20.0 / qblur=0.5 / ip_ratio=1.40 / aq=1:1.00
Default : Yes
Forced : No

Audio
ID : 2
Format : DTS
Format/Info : Digital Theater Systems
Mode : 16
Format settings, Endianness : Big
Codec ID : A_DTS
Duration : 1 h 26 min
Bit rate mode : Constant
Bit rate : 768 kb/s
Channel(s) : 6 channels
Channel positions : Front: L C R, Side: L R, LFE
Sampling rate : 48.0 kHz
Frame rate : 93.750 FPS (512 spf)
Bit depth : 24 bits
Compression mode : Lossy
Stream size : 474 MiB (11%)
Language : English
Default : Yes
Forced : No

Menu
00:00:00.000 : en:00:00:00.000
00:05:30.539 : en:00:05:30.539
00:12:19.739 : en:00:12:19.739
00:20:27.226 : en:00:20:27.226
00:27:09.628 : en:00:27:09.628
00:34:49.212 : en:00:34:49.212
00:39:00.338 : en:00:39:00.338
00:46:09.767 : en:00:46:09.767
00:54:14.251 : en:00:54:14.251
01:04:10.847 : en:01:04:10.847
01:14:18.454 : en:01:14:18.454
01:22:20.936 : en:01:22:20.936


BRRip Screenshots

The Curse of Sleeping Beauty (2016)

The Curse of Sleeping Beauty (2016)

The Curse of Sleeping Beauty (2016)


BDRip 720p Screenshots

The Curse of Sleeping Beauty (2016)

The Curse of Sleeping Beauty (2016)

The Curse of Sleeping Beauty (2016)


Come Visit My Blog (•‿•)