The Devil's Rejects (2005) [UNRATED Directors Cut]

Posted By: Without
The Devil's Rejects (2005) [UNRATED Directors Cut]

The Devil's Rejects (2005)
BDRip 1080p | MKV | 1920x1080 | AVC@9617 kb/s | English AC3@640 kb/s | 6 channels | 1 h 50 min | 7.94 GB
Genre: Crime, Horror

The murderous, backwoods Firefly family take to the road to escape a vengeful police force which is not afraid of being as ruthless as their target.

IMDB - 10 wins & 5 nominations


General
Unique ID : 188000510562658703137607827548052832495 (0x8D6F94CF1C8DF9C38444715ACE46C0EF)
Complete name : D:\Torrents\The.Devils.Rejects.2005.1080p.BluRay.x264-HV\the.devils.rejects.2005.1080p.bluray.x264-hv.mkv
Format : Matroska
Format version : Version 1
File size : 7.95 GiB
Duration : 1 h 50 min
Overall bit rate : 10.3 Mb/s
Encoded date : UTC 2008-12-13 08:54:13
Writing application : mkvmerge v2.4.0 ('Fumbling Towards Ecstasy') built on Oct 11 2008 20:13:15
Writing library : libebml v0.7.7 + libmatroska v0.8.1

Video
ID : 1
Format : AVC
Format/Info : Advanced Video Codec
Format profile : High@L4.1
Format settings, CABAC : Yes
Format settings, ReFrames : 4 frames
Codec ID : V_MPEG4/ISO/AVC
Duration : 1 h 50 min
Bit rate : 9 617 kb/s
Width : 1 920 pixels
Height : 1 080 pixels
Display aspect ratio : 16:9
Frame rate mode : Constant
Frame rate : 23.976 (24000/1001) FPS
Color space : YUV
Chroma subsampling : 4:2:0
Bit depth : 8 bits
Scan type : Progressive
Bits/(Pixel*Frame) : 0.193
Stream size : 7.29 GiB (92%)
Writing library : x264 core 65 r1029M cb3c213
Encoding settings : cabac=1 / ref=4 / deblock=1:0:0 / analyse=0x3:0x113 / me=umh / subme=7 / psy_rd=1.0:0.0 / mixed_ref=1 / me_range=16 / chroma_me=1 / trellis=1 / 8x8dct=1 / cqm=0 / deadzone=21,11 / chroma_qp_offset=-2 / threads=6 / nr=0 / decimate=1 / mbaff=0 / bframes=3 / b_pyramid=1 / b_adapt=1 / b_bias=0 / direct=3 / wpredb=1 / keyint=24 / keyint_min=1 / scenecut=40(pre) / rc=2pass / bitrate=9617 / ratetol=1.0 / qcomp=0.60 / qpmin=10 / qpmax=51 / qpstep=4 / cplxblur=20.0 / qblur=0.5 / vbv_maxrate=17500 / vbv_bufsize=14745 / ip_ratio=1.40 / pb_ratio=1.30 / aq=1:1.00
Language : English
Default : Yes
Forced : No

Audio
ID : 2
Format : AC-3
Format/Info : Audio Coding 3
Mode extension : CM (complete main)
Format settings, Endianness : Big
Codec ID : A_AC3
Duration : 1 h 50 min
Bit rate mode : Constant
Bit rate : 640 kb/s
Channel(s) : 6 channels
Channel positions : Front: L C R, Side: L R, LFE
Sampling rate : 48.0 kHz
Frame rate : 31.250 FPS (1536 spf)
Bit depth : 16 bits
Compression mode : Lossy
Stream size : 508 MiB (6%)
Language : English
Default : Yes
Forced : No

Menu
00:00:00.000 : en:00:00:00.000
00:13:20.675 : en:00:13:20.675
00:19:01.015 : en:00:19:01.015
00:32:09.553 : en:00:32:09.553
00:43:03.331 : en:00:43:03.331
00:53:27.704 : en:00:53:27.704
00:59:06.418 : en:00:59:06.418
01:08:49.751 : en:01:08:49.751
01:19:42.528 : en:01:19:42.528
01:30:09.529 : en:01:30:09.529
01:40:45.790 : en:01:40:45.790
01:46:29.383 : en:01:46:29.383


BDRip 1080p Screenshots

The Devil's Rejects (2005) [UNRATED Directors Cut]

The Devil's Rejects (2005) [UNRATED Directors Cut]

The Devil's Rejects (2005) [UNRATED Directors Cut]


Come Visit My Blog (•‿•)