The Giant / Jätten (2016)

Posted By: Without
The Giant / Jätten (2016)

The Giant / Jätten (2016)
BDRip 720p | MKV | 1280x694 | AVC@5947 kb/s | Swedish AC3@640 kb/s
Subs: English, Swedish | 6 channels | 1 h 21 min | 3.95 GB
Genre: Drama, Sport

Rikard is an autistic and severely deformed man who was separated from his mother at birth. Thirty years later he is convinced that he will get her back if only he wins the Scandinavian Championship of pétanque. He tries to do the impossible. His fragile physique and a harsh judging environment are not going to stop him. Plus there is a 200 foot giant on his side.



General
Jätten.2016.720p.BluRay.DD5.1.x264-VietHD\Jätten.2016.720p.BluRay.DD5.1.x264-VietHD.mkv
Format : Matroska
Format version : Version 4 / Version 2
File size : 3.95 GiB
Duration : 1 h 25 min
Overall bit rate : 6 580 kb/s
Encoded date : UTC 2017-10-30 06:51:13
Writing application : mkvmerge v9.3.1 ('Mask Machine') 64bit
Writing library : libebml v1.3.4 + libmatroska v1.4.5
Cover : Yes
Attachments : cover.jpg / cover land.jpg

Video
ID : 1
Format : AVC
Format/Info : Advanced Video Codec
Format profile : High@L4.1
Format settings, CABAC : Yes
Format settings, ReFrames : 9 frames
Codec ID : V_MPEG4/ISO/AVC
Duration : 1 h 25 min
Bit rate : 5 947 kb/s
Width : 1 280 pixels
Height : 694 pixels
Display aspect ratio : 1.85:1
Frame rate mode : Constant
Frame rate : 50.000 FPS
Color space : YUV
Chroma subsampling : 4:2:0
Bit depth : 8 bits
Scan type : Progressive
Bits/(Pixel*Frame) : 0.134
Stream size : 3.57 GiB (90%)
Writing library : x264 core 150 r2833+21 82447f2 VietHD_Custom
Encoding settings : cabac=1 / ref=9 / deblock=1:-3:-3 / analyse=0x3:0x133 / me=umh / subme=10 / psy=1 / fade_compensate=0.00 / psy_rd=1.00:0.00 / mixed_ref=1 / me_range=24 / chroma_me=1 / trellis=2 / 8x8dct=1 / cqm=0 / deadzone=21,11 / fast_pskip=0 / chroma_qp_offset=-2 / threads=6 / lookahead_threads=1 / sliced_threads=0 / nr=0 / decimate=0 / interlaced=0 / bluray_compat=0 / constrained_intra=0 / fgo=0 / bframes=8 / b_pyramid=2 / b_adapt=2 / b_bias=0 / direct=3 / weightb=1 / open_gop=0 / weightp=2 / keyint=250 / keyint_min=25 / scenecut=40 / intra_refresh=0 / rc_lookahead=60 / rc=crf / mbtree=0 / crf=15.0000 / qcomp=0.60 / qpmin=0:0:0 / qpmax=69:69:69 / qpstep=4 / vbv_maxrate=62500 / vbv_bufsize=78125 / crf_max=0.0 / nal_hrd=none / filler=0 / ip_ratio=1.30 / pb_ratio=1.20 / aq=3:0.75 / aq-sensitivity=10.00 / aq-factor=1.00:1.00:1.00 / aq2=0 / aq3=0
Language : English
Default : Yes
Forced : No

Audio
ID : 3
Format : AC-3
Format/Info : Audio Coding 3
Mode extension : CM (complete main)
Format settings, Endianness : Big
Codec ID : A_AC3
Duration : 1 h 21 min
Bit rate mode : Constant
Bit rate : 640 kb/s
Channel(s) : 6 channels
Channel positions : Front: L C R, Side: L R, LFE
Sampling rate : 48.0 kHz
Frame rate : 31.250 FPS (1536 spf)
Bit depth : 16 bits
Compression mode : Lossy
Stream size : 375 MiB (9%)
Title : Swedish AC3
Language : Swedish
Default : Yes
Forced : No

Text #1
ID : 2
Format : UTF-8
Codec ID : S_TEXT/UTF8
Codec ID/Info : UTF-8 Plain Text
Duration : 1 h 21 min
Bit rate : 36 b/s
Count of elements : 520
Stream size : 21.9 KiB (0%)
Language : bra
Default : No
Forced : No

Text #2
ID : 4
Format : PGS
Muxing mode : zlib
Codec ID : S_HDMV/PGS
Codec ID/Info : Picture based subtitle format used on BDs/HD-DVDs
Duration : 1 h 16 min
Bit rate : 11.0 kb/s
Count of elements : 1060
Stream size : 6.05 MiB (0%)
Title : Swe SDH
Language : Swedish
Default : No
Forced : No

Text #3
ID : 5
Format : UTF-8
Codec ID : S_TEXT/UTF8
Codec ID/Info : UTF-8 Plain Text
Duration : 1 h 21 min
Bit rate : 34 b/s
Count of elements : 518
Stream size : 20.5 KiB (0%)
Title : English Srt
Language : English
Default : No
Forced : No

Text #4
ID : 6
Format : PGS
Muxing mode : zlib
Codec ID : S_HDMV/PGS
Codec ID/Info : Picture based subtitle format used on BDs/HD-DVDs
Duration : 1 h 21 min
Bit rate : 9 409 b/s
Count of elements : 1036
Stream size : 5.48 MiB (0%)
Title : English SDH
Language : English
Default : No
Forced : No

Menu
00:00:00.000 : en:Chapter 01 / en:Chapter 02
00:10:00.000 : en:Chapter 03 / en:Chapter 04
00:20:00.000 : en:Chapter 05
00:30:00.000 : en:Chapter 06
00:40:00.000 : en:Chapter 07
00:50:00.000 : en:Chapter 08
01:00:00.000 : en:Chapter 09
01:10:00.000 : en:Chapter 10
01:20:00.000 : en:Chapter 11


BDRip 720p Screenshots

The Giant / Jätten (2016)

The Giant / Jätten (2016)

The Giant / Jätten (2016)

The Giant / Jätten (2016)

The Giant / Jätten (2016)

The Giant / Jätten (2016)


Come Visit My Blog (•‿•)