Tags
Language
Tags

The Innocents (1961) [Remastered]

Posted By: Without
The Innocents (1961) [Remastered]

The Innocents (1961)
BDRip 1080p | MKV | 1920x816 | AVC@8730 kb/s | English AC3@640 kb/s
Subs: English | 1 channel | 1 h 40 min | 6.55 GB
Genre: Horror

A young governess for two children becomes convinced that the house and grounds are haunted.

IMDB - Nominated for 2 BAFTA Film Awards. Another 3 wins & 3 nominations


General
The.Innocents.1961.REMASTERED.1080p.BluRay.X264-AMIABLE\The.Innocents.1961.REMASTERED.1080p.BluRay.X264-AMIABLE.mkv
Format : Matroska
Format version : Version 2
File size : 6.56 GiB
Duration : 1 h 40 min
Overall bit rate : 9 371 kb/s
Writing application : mkvmerge v6.6.0 ('The Edge Of The In Between') built on Dec 1 2013 17:55:00
Writing library : libebml v1.3.0 + libmatroska v1.4.1

Video
ID : 1
Format : AVC
Format/Info : Advanced Video Codec
Format profile : High@L4.1
Format settings, CABAC : Yes
Format settings, ReFrames : 5 frames
Codec ID : V_MPEG4/ISO/AVC
Duration : 1 h 40 min
Bit rate : 8 730 kb/s
Width : 1 920 pixels
Height : 816 pixels
Display aspect ratio : 2.35:1
Frame rate mode : Constant
Frame rate : 23.976 (24000/1001) FPS
Color space : YUV
Chroma subsampling : 4:2:0
Bit depth : 8 bits
Scan type : Progressive
Bits/(Pixel*Frame) : 0.232
Stream size : 5.98 GiB (91%)
Writing library : x264 core 142 r2479 dd79a61
Encoding settings : cabac=1 / ref=5 / deblock=1:-3:-3 / analyse=0x3:0x133 / me=umh / subme=9 / psy=1 / psy_rd=1.10:0.00 / mixed_ref=1 / me_range=16 / chroma_me=1 / trellis=2 / 8x8dct=1 / cqm=0 / deadzone=21,11 / fast_pskip=1 / chroma_qp_offset=-2 / threads=12 / lookahead_threads=1 / sliced_threads=0 / nr=0 / decimate=1 / interlaced=0 / bluray_compat=0 / constrained_intra=0 / bframes=3 / b_pyramid=2 / b_adapt=2 / b_bias=0 / direct=3 / weightb=1 / open_gop=0 / weightp=2 / keyint=240 / keyint_min=24 / scenecut=40 / intra_refresh=0 / rc_lookahead=60 / rc=2pass / mbtree=1 / bitrate=8730 / ratetol=1.0 / qcomp=0.60 / qpmin=0 / qpmax=69 / qpstep=4 / cplxblur=20.0 / qblur=0.5 / ip_ratio=1.40 / aq=1:0.80
Language : English
Default : Yes
Forced : No

Audio
ID : 2
Format : AC-3
Format/Info : Audio Coding 3
Mode extension : CM (complete main)
Format settings, Endianness : Big
Codec ID : A_AC3
Duration : 1 h 40 min
Bit rate mode : Constant
Bit rate : 640 kb/s
Channel(s) : 1 channel
Channel positions : Front: C
Sampling rate : 48.0 kHz
Frame rate : 31.250 FPS (1536 spf)
Bit depth : 16 bits
Compression mode : Lossy
Stream size : 459 MiB (7%)
Language : English
Default : Yes
Forced : No

Text #1
ID : 3
Format : UTF-8
Codec ID : S_TEXT/UTF8
Codec ID/Info : UTF-8 Plain Text
Title : SDH
Language : English
Default : No
Forced : No

Text #2
ID : 4
Format : UTF-8
Codec ID : S_TEXT/UTF8
Codec ID/Info : UTF-8 Plain Text
Language : English
Default : No
Forced : No

Menu
00:00:00.000 : en:00:00:00.000
00:07:39.876 : en:00:07:39.876
00:15:20.711 : en:00:15:20.711
00:22:31.183 : en:00:22:31.183
00:28:10.814 : en:00:28:10.814
00:34:03.166 : en:00:34:03.166
00:41:09.384 : en:00:41:09.384
00:50:16.180 : en:00:50:16.180
00:59:09.796 : en:00:59:09.796
01:03:38.815 : en:01:03:38.815
01:07:23.623 : en:01:07:23.623
01:16:09.148 : en:01:16:09.148
01:21:04.276 : en:01:21:04.276
01:26:09.581 : en:01:26:09.581


BDRip 1080p Screenshots

The Innocents (1961) [Remastered]

The Innocents (1961) [Remastered]

The Innocents (1961) [Remastered]

The Innocents (1961) [Remastered]

The Innocents (1961) [Remastered]


Come Visit My Blog (•‿•)