The Man Who Invented Christmas (2017)

Posted By: Without
1080p (FullHD) / BluRay Remux IMDb
The Man Who Invented Christmas (2017)

The Man Who Invented Christmas (2017)
BD-Remux | MKV | 1920x1080 | AVC@30.8 Mb/s | English DTS-HD MA@2779 kb/s (6 ch)
Subs: English, Spanish | 1 h 44 min | 24.5 GB
Genre: Biography, Comedy, Drama

The journey that led to Charles Dickens' creation of "A Christmas Carol," a timeless tale that would redefine the holiday.

IMDB - 1 win.


General
The.Man.Who.Invented.Christmas.2017.BluRay.1080p.DTS-HD.MA.5.1.AVC.REMUX-FraMeSToR.mkv
Format : Matroska
Format version : Version 4 / Version 2
File size : 24.5 GiB
Duration : 1 h 44 min
Overall bit rate mode : Variable
Overall bit rate : 33.6 Mb/s
Movie name : The Man Who Invented Christmas
Encoded date : UTC 2018-02-23 16:36:09
Writing application : mkvmerge v20.0.0 ('I Am The Sun') 64-bit
Writing library : libebml v1.3.5 + libmatroska v1.4.8

Video
ID : 1
Format : AVC
Format/Info : Advanced Video Codec
Format profile : High@L4.1
Format settings, CABAC : Yes
Format settings, ReFrames : 4 frames
Codec ID : V_MPEG4/ISO/AVC
Duration : 1 h 44 min
Bit rate mode : Variable
Bit rate : 30.8 Mb/s
Maximum bit rate : 35.0 Mb/s
Width : 1 920 pixels
Height : 1 080 pixels
Display aspect ratio : 16:9
Frame rate mode : Constant
Frame rate : 23.976 (24000/1001) FPS
Color space : YUV
Chroma subsampling : 4:2:0
Bit depth : 8 bits
Scan type : Progressive
Bits/(Pixel*Frame) : 0.619
Stream size : 22.5 GiB (91%)
Default : Yes
Forced : No

Audio
ID : 2
Format : DTS
Format/Info : Digital Theater Systems
Format profile : MA / Core
Mode : 16
Format settings, Endianness : Big
Codec ID : A_DTS
Duration : 1 h 44 min
Bit rate mode : Variable / Constant
Bit rate : 2 779 kb/s / 1 509 kb/s
Channel(s) : 6 channels
Channel positions : Front: L C R, Side: L R, LFE
Sampling rate : 48.0 kHz
Frame rate : 93.750 FPS (512 spf)
Bit depth : 24 bits
Compression mode : Lossless / Lossy
Stream size : 2.03 GiB (8%)
Title : DTS-HD MA 5.1
Language : English
Default : Yes
Forced : No

Text #1
ID : 3
Format : PGS
Codec ID : S_HDMV/PGS
Codec ID/Info : Picture based subtitle format used on BDs/HD-DVDs
Duration : 1 h 36 min
Bit rate : 48.5 kb/s
Count of elements : 3721
Stream size : 33.5 MiB (0%)
Title : English (SDH)
Language : English
Default : No
Forced : No

Text #2
ID : 4
Format : PGS
Codec ID : S_HDMV/PGS
Codec ID/Info : Picture based subtitle format used on BDs/HD-DVDs
Duration : 1 h 43 min
Bit rate : 36.4 kb/s
Count of elements : 2956
Stream size : 27.0 MiB (0%)
Title : Spanish (Latin American)
Language : Spanish
Default : No
Forced : No

Menu
00:00:00.000 : en:Chapter 01
00:05:06.014 : en:Chapter 02
00:12:43.179 : en:Chapter 03
00:17:12.740 : en:Chapter 04
00:22:02.655 : en:Chapter 05
00:25:10.843 : en:Chapter 06
00:29:02.699 : en:Chapter 07
00:33:22.542 : en:Chapter 08
00:37:53.897 : en:Chapter 09
00:41:50.258 : en:Chapter 10
00:47:02.111 : en:Chapter 11
00:51:23.205 : en:Chapter 12
00:57:15.515 : en:Chapter 13
01:05:34.764 : en:Chapter 14
01:09:44.931 : en:Chapter 15
01:15:32.153 : en:Chapter 16
01:19:46.365 : en:Chapter 17
01:27:44.009 : en:Chapter 18
01:32:09.858 : en:Chapter 19
01:37:57.872 : en:Chapter 20


Screenshots

The Man Who Invented Christmas (2017)

The Man Who Invented Christmas (2017)

The Man Who Invented Christmas (2017)

The Man Who Invented Christmas (2017)


Come Visit My Blog (•‿•)