The Matrix (1999) [Remastered]

Posted By: Without
1080p (FullHD) / BDRip IMDb
The Matrix (1999) [Remastered]

The Matrix (1999)
BDRip 720p | MKV | 1280x536 | AVC@7392 kb/s | English AC3@640 kb/s
Subs: English | 6 channels | 2 h 16 min | 7.65 GB
BDRip 1080p | MKV | 1920x800 | AVC@13.1 Mb/s | English AC3@640 kb/s
Subs: English | 6 channels | 2 h 16 min | 13.1 GB
Genre: Action, Sci-Fi

A computer hacker learns from mysterious rebels about the true nature of his reality and his role in the war against its controllers.

IMDB - Top Rated Movies #19 | Won 4 Oscars. Another 37 wins & 49 nominations.


General
The.Matrix.1999.REMASTERED.720p.BluRay.X264-AMIABLE.mkv
Format : Matroska
Format version : Version 4 / Version 2
File size : 7.65 GiB
Duration : 2 h 16 min
Overall bit rate : 8 031 kb/s
Encoded date : UTC 2010-02-22 21:41:29
Writing application : no_variable_data
Writing library : no_variable_data

Video
ID : 1
Format : AVC
Format/Info : Advanced Video Codec
Format profile : High@L4.1
Format settings : CABAC / 12 Ref Frames
Format settings, CABAC : Yes
Format settings, RefFrames : 12 frames
Codec ID : V_MPEG4/ISO/AVC
Duration : 2 h 16 min
Bit rate : 7 392 kb/s
Width : 1 280 pixels
Height : 536 pixels
Display aspect ratio : 2.40:1
Frame rate mode : Constant
Frame rate : 23.976 (24000/1001) FPS
Color space : YUV
Chroma subsampling : 4:2:0
Bit depth : 8 bits
Scan type : Progressive
Bits/(Pixel*Frame) : 0.449
Stream size : 6.89 GiB (90%)
Writing library : x264 core 155 r2901 7d0ff22
Encoding settings : cabac=1 / ref=12 / deblock=1:-3:-3 / analyse=0x3:0x133 / me=umh / subme=10 / psy=1 / psy_rd=1.10:0.00 / mixed_ref=1 / me_range=24 / chroma_me=1 / trellis=2 / 8x8dct=1 / cqm=0 / deadzone=21,11 / fast_pskip=0 / chroma_qp_offset=-2 / threads=17 / lookahead_threads=2 / sliced_threads=0 / nr=0 / decimate=1 / interlaced=0 / bluray_compat=0 / constrained_intra=0 / bframes=8 / b_pyramid=2 / b_adapt=2 / b_bias=0 / direct=3 / weightb=1 / open_gop=0 / weightp=2 / keyint=240 / keyint_min=32 / scenecut=40 / intra_refresh=0 / rc_lookahead=60 / rc=2pass / mbtree=1 / bitrate=7392 / ratetol=1.0 / qcomp=0.60 / qpmin=0 / qpmax=69 / qpstep=4 / cplxblur=20.0 / qblur=0.5 / ip_ratio=1.30 / aq=3:0.80
Default : Yes
Forced : No
Statistics Tags Issue : no_variable_data 1970-01-01 00:00:00 / no_variable_data 2010-02-22 21:41:29
FromStats_BitRate : 7389273
FromStats_Duration : 02:16:20.631000000
FromStats_FrameCount : 196139
FromStats_StreamSize : 7556114772

Audio
ID : 2
Format : AC-3
Format/Info : Audio Coding 3
Codec ID : A_AC3
Duration : 2 h 16 min
Bit rate mode : Constant
Bit rate : 640 kb/s
Channel(s) : 6 channels
Channel positions : Front: L C R, Side: L R, LFE
Sampling rate : 48.0 kHz
Frame rate : 31.250 FPS (1536 SPF)
Bit depth : 16 bits
Compression mode : Lossy
Stream size : 624 MiB (8%)
Language : English
Service kind : Complete Main
Default : Yes
Forced : No
Statistics Tags Issue : no_variable_data 1970-01-01 00:00:00 / no_variable_data 2010-02-22 21:41:29
FromStats_BitRate : 640000
FromStats_Duration : 02:16:20.640000000
FromStats_FrameCount : 255645
FromStats_StreamSize : 654451200

Text #1
ID : 3
Format : UTF-8
Codec ID : S_TEXT/UTF8
Codec ID/Info : UTF-8 Plain Text
Language : English
Default : No
Forced : No
Statistics Tags Issue : no_variable_data 1970-01-01 00:00:00 / no_variable_data 2010-02-22 21:41:29
FromStats_BitRate : 41
FromStats_Duration : 02:07:54.291000000
FromStats_FrameCount : 1344
FromStats_StreamSize : 39495

Text #2
ID : 4
Format : UTF-8
Codec ID : S_TEXT/UTF8
Codec ID/Info : UTF-8 Plain Text
Title : SDH
Language : English
Default : No
Forced : No
Statistics Tags Issue : no_variable_data 1970-01-01 00:00:00 / no_variable_data 2010-02-22 21:41:29
FromStats_BitRate : 40
FromStats_Duration : 02:15:33.208000000
FromStats_FrameCount : 1373
FromStats_StreamSize : 40817

Menu
00:00:00.000 : en:00:00:00.000
00:03:26.957 : en:00:03:26.957
00:06:36.813 : en:00:06:36.813
00:09:43.833 : en:00:09:43.833
00:11:59.469 : en:00:11:59.469
00:16:48.591 : en:00:16:48.591
00:21:34.710 : en:00:21:34.710
00:25:09.758 : en:00:25:09.758
00:28:52.314 : en:00:28:52.314
00:32:26.361 : en:00:32:26.361
00:35:23.038 : en:00:35:23.038
00:38:42.070 : en:00:38:42.070
00:44:23.744 : en:00:44:23.744
00:46:34.709 : en:00:46:34.709
00:48:59.019 : en:00:48:59.019
00:53:32.459 : en:00:53:32.459
00:56:33.307 : en:00:56:33.307
00:59:02.456 : en:00:59:02.456
01:01:09.749 : en:01:01:09.749
01:05:17.664 : en:01:05:17.664
01:07:47.981 : en:01:07:47.981
01:12:34.600 : en:01:12:34.600
01:17:50.749 : en:01:17:50.749
01:21:04.276 : en:01:21:04.276
01:25:06.518 : en:01:25:06.518
01:29:46.298 : en:01:29:46.298
01:31:28.733 : en:01:31:28.733
01:37:26.424 : en:01:37:26.424
01:41:06.143 : en:01:41:06.143
01:44:21.505 : en:01:44:21.505
01:47:01.665 : en:01:47:01.665
01:50:19.696 : en:01:50:19.696
01:52:57.854 : en:01:52:57.854
01:56:38.074 : en:01:56:38.074
01:58:50.540 : en:01:58:50.540
02:02:28.591 : en:02:02:28.591
02:05:42.952 : en:02:05:42.952
02:08:47.970 : en:02:08:47.970

General
The.Matrix.1999.REMASTERED.1080p.BluRay.X264-AMIABLE.mkv
Format : Matroska
Format version : Version 4 / Version 2
File size : 13.1 GiB
Duration : 2 h 16 min
Overall bit rate : 13.8 Mb/s
Encoded date : UTC 2010-02-22 21:41:29
Writing application : no_variable_data
Writing library : no_variable_data

Video
ID : 1
Format : AVC
Format/Info : Advanced Video Codec
Format profile : High@L4.1
Format settings : CABAC / 5 Ref Frames
Format settings, CABAC : Yes
Format settings, RefFrames : 5 frames
Codec ID : V_MPEG4/ISO/AVC
Duration : 2 h 16 min
Bit rate : 13.1 Mb/s
Width : 1 920 pixels
Height : 800 pixels
Display aspect ratio : 2.40:1
Frame rate mode : Constant
Frame rate : 23.976 (24000/1001) FPS
Color space : YUV
Chroma subsampling : 4:2:0
Bit depth : 8 bits
Scan type : Progressive
Bits/(Pixel*Frame) : 0.357
Stream size : 12.2 GiB (93%)
Writing library : x264 core 155 r2901 7d0ff22
Encoding settings : cabac=1 / ref=5 / deblock=1:-3:-3 / analyse=0x3:0x133 / me=umh / subme=10 / psy=1 / psy_rd=1.10:0.00 / mixed_ref=1 / me_range=48 / chroma_me=1 / trellis=2 / 8x8dct=1 / cqm=0 / deadzone=21,11 / fast_pskip=0 / chroma_qp_offset=-2 / threads=24 / lookahead_threads=4 / sliced_threads=0 / nr=0 / decimate=1 / interlaced=0 / bluray_compat=0 / constrained_intra=0 / bframes=8 / b_pyramid=2 / b_adapt=2 / b_bias=0 / direct=3 / weightb=1 / open_gop=0 / weightp=2 / keyint=240 / keyint_min=24 / scenecut=40 / intra_refresh=0 / rc_lookahead=60 / rc=2pass / mbtree=1 / bitrate=13135 / ratetol=1.0 / qcomp=0.60 / qpmin=0 / qpmax=69 / qpstep=4 / cplxblur=20.0 / qblur=0.5 / ip_ratio=1.30 / aq=3:0.80
Default : Yes
Forced : No
Statistics Tags Issue : no_variable_data 1970-01-01 00:00:00 / no_variable_data 2010-02-22 21:41:29
FromStats_BitRate : 13129973
FromStats_Duration : 02:16:20.631000000
FromStats_FrameCount : 196139
FromStats_StreamSize : 13426433528

Audio
ID : 2
Format : AC-3
Format/Info : Audio Coding 3
Codec ID : A_AC3
Duration : 2 h 16 min
Bit rate mode : Constant
Bit rate : 640 kb/s
Channel(s) : 6 channels
Channel positions : Front: L C R, Side: L R, LFE
Sampling rate : 48.0 kHz
Frame rate : 31.250 FPS (1536 SPF)
Bit depth : 16 bits
Compression mode : Lossy
Stream size : 624 MiB (5%)
Language : English
Service kind : Complete Main
Default : Yes
Forced : No
Statistics Tags Issue : no_variable_data 1970-01-01 00:00:00 / no_variable_data 2010-02-22 21:41:29
FromStats_BitRate : 640000
FromStats_Duration : 02:16:20.640000000
FromStats_FrameCount : 255645
FromStats_StreamSize : 654451200

Text #1
ID : 3
Format : UTF-8
Codec ID : S_TEXT/UTF8
Codec ID/Info : UTF-8 Plain Text
Language : English
Default : No
Forced : No
Statistics Tags Issue : no_variable_data 1970-01-01 00:00:00 / no_variable_data 2010-02-22 21:41:29
FromStats_BitRate : 41
FromStats_Duration : 02:07:54.291000000
FromStats_FrameCount : 1344
FromStats_StreamSize : 39495

Text #2
ID : 4
Format : UTF-8
Codec ID : S_TEXT/UTF8
Codec ID/Info : UTF-8 Plain Text
Title : SDH
Language : English
Default : No
Forced : No
Statistics Tags Issue : no_variable_data 1970-01-01 00:00:00 / no_variable_data 2010-02-22 21:41:29
FromStats_BitRate : 40
FromStats_Duration : 02:15:33.208000000
FromStats_FrameCount : 1373
FromStats_StreamSize : 40817

Menu
00:00:00.000 : en:00:00:00.000
00:03:26.957 : en:00:03:26.957
00:06:36.813 : en:00:06:36.813
00:09:43.833 : en:00:09:43.833
00:11:59.469 : en:00:11:59.469
00:16:48.591 : en:00:16:48.591
00:21:34.710 : en:00:21:34.710
00:25:09.758 : en:00:25:09.758
00:28:52.314 : en:00:28:52.314
00:32:26.361 : en:00:32:26.361
00:35:23.038 : en:00:35:23.038
00:38:42.070 : en:00:38:42.070
00:44:23.744 : en:00:44:23.744
00:46:34.709 : en:00:46:34.709
00:48:59.019 : en:00:48:59.019
00:53:32.459 : en:00:53:32.459
00:56:33.307 : en:00:56:33.307
00:59:02.456 : en:00:59:02.456
01:01:09.749 : en:01:01:09.749
01:05:17.664 : en:01:05:17.664
01:07:47.981 : en:01:07:47.981
01:12:34.600 : en:01:12:34.600
01:17:50.749 : en:01:17:50.749
01:21:04.276 : en:01:21:04.276
01:25:06.518 : en:01:25:06.518
01:29:46.298 : en:01:29:46.298
01:31:28.733 : en:01:31:28.733
01:37:26.424 : en:01:37:26.424
01:41:06.143 : en:01:41:06.143
01:44:21.505 : en:01:44:21.505
01:47:01.665 : en:01:47:01.665
01:50:19.696 : en:01:50:19.696
01:52:57.854 : en:01:52:57.854
01:56:38.074 : en:01:56:38.074
01:58:50.540 : en:01:58:50.540
02:02:28.591 : en:02:02:28.591
02:05:42.952 : en:02:05:42.952
02:08:47.970 : en:02:08:47.970


BDRip 720p Screenshots

The Matrix (1999) [Remastered]

The Matrix (1999) [Remastered]

The Matrix (1999) [Remastered]


BDRip 1080p Screenshots

The Matrix (1999) [Remastered]

The Matrix (1999) [Remastered]

The Matrix (1999) [Remastered]


Come Visit My Blog (•‿•)