The Mishaps of Musty Suffer - Collection of Short Comedy Movies 1916-1917

Posted By: El Misha
The Mishaps of Musty Suffer - Collection of Short Comedy Movies 1916-1917

The Mishaps of Musty Suffer - Сollection of Short Comedy Movies 1916-1917
DVDRip | AVI | 624x464, 704x528 | XviD@2300 kbps, 23.976fps | АС3 2.0@192 Kbps | 12 x ~ 00:12:00 | 2.72 GB
Language: Silent with Musical Score and English intertitles | Genre: Comedy | Subtitles: Russian

Undercrank Productions has dug up some more amazing silent shorts and released them on DVD. The Mishaps of Musty Suffer contains one-reel films starring the unjustifiably forgotten Harry Watson Jr. along with new musical scores composed and performed by Ben Model. These films are funny, surreal, and immensely entertaining, everything you want in a silent comedy.

In 1947 the Library of Congress acquired the George Kleine collection of 456 film titles as well as stills and correspondence. Kleine was a pioneer motion picture producer and distributor who’s not well known today but was an important part of the early American film industry. He was the “K” in Kalem (named for Kleine, Samuel Long, and Frank J. Marion), imported and released European films under the Cines and Eclipse brands, and was also involved in the patents wars as part of the Motion Pictures Patents Company. When the start of World War I cut off his supply of imported European pictures, he produced and released his own independent productions, a mix of dramas and comedies made primarily in the northeast (his offices were in New York City), and many of which utilized performers from the “legitimate” and vaudeville stages.

The film elements and stills in the Kleine Collection are held at here at the Packard Campus. Some of the motion picture holdings are in 35mm, but most of them are 16mm reduction master positives derived from the original 35mm nitrate elements acquired in 1947. The Library didn’t have its own film preservation laboratory until 1970, so back when the Kleine Collection was acquired, it was accepted practice to make 16mm safety film elements and destroy the original nitrate. Just like our policy of returning nitrate film registered for copyright, this decision is lamentable now, but understandable given the circumstances. Regardless, 16mm viewing prints of the Kleine films are available for access in the Moving Image Research Center, while the Kleine papers are held by the Library’s Manuscript Division.


H.H. McCollum enjoying Harry Watson, Jr. getting some rough treatment in Cruel and Unusual (1916)
About a year ago, film historians Steve Massa and Ben Model, one of our silent film organists at the Packard Campus Theatre, took an interest in a series of oddball comedy shorts produced by Kleine called “The Mishaps of Musty Suffer.” The films follow the misadventures of a put-upon tramp–Ziegfeld Follies headliner Harry Watson, Jr.–who lives a slapstick version of the Story of Job, besieged by fate and folly at every turn.

Kleine released the “Musty” one-reelers on a weekly basis between 1916 and 1917 in three series of ten films. Twenty-four of the thirty survive, and the Library has preserved all of them. Ben and Steve visit us regularly and, working with Moving Image Curator Rob Stone (a slapstick aficionado himself), research rarities in our collections. They decided to look at all the extant “whirls” (as episodes were called back then) in the “Musty Suffer” series. From that, a plan to make the films more widely accessible was born.



The Mishaps of Musty Suffer - Collection of Short Comedy Movies 1916-1917




The Mishaps of Musty Suffer - Collection of Short Comedy Movies 1916-1917





General
Complete name : H:\The Mishaps of Musty Suffer\1916 Blow Your Horn\1916 Blow Your Horn.avi
Format : AVI
Format/Info : Audio Video Interleave
File size : 225 MiB
Duration : 12mn 31s
Overall bit rate : 2 516 Kbps
Writing application : VirtualDubMod 1.5.10.2 (build 2540/release)
Writing library : VirtualDubMod build 2540/release

Video
ID : 0
Format : MPEG-4 Visual
Format profile : Advanced Simple@L5
Format settings, BVOP : 1
Format settings, QPel : No
Format settings, GMC : No warppoints
Format settings, Matrix : Default (MPEG)
Codec ID : XVID
Codec ID/Hint : XviD
Duration : 12mn 31s
Bit rate : 2 314 Kbps
Width : 624 pixels
Height : 464 pixels
Display aspect ratio : 4:3
Frame rate : 23.976 fps
Color space : YUV
Chroma subsampling : 4:2:0
Bit depth : 8 bits
Scan type : Progressive
Compression mode : Lossy
Bits/(Pixel*Frame) : 0.333
Stream size : 207 MiB (92%)
Writing library : XviD 1.2.0.dev47 (UTC 2006-11-01)

Audio
ID : 1
Format : AC-3
Format/Info : Audio Coding 3
Mode extension : CM (complete main)
Format settings, Endianness : Big
Codec ID : 2000
Duration : 12mn 31s
Bit rate mode : Constant
Bit rate : 192 Kbps
Channel(s) : 2 channels
Channel positions : Front: L R
Sampling rate : 48.0 KHz
Bit depth : 16 bits
Compression mode : Lossy
Stream size : 17.2 MiB (8%)
Alignment : Split accross interleaves
Interleave, duration : 42 ms (1.00 video frame)
Interleave, preload duration : 500 ms

General
Complete name : H:\The Mishaps of Musty Suffer\1916 Blow Your Horn\1916 Blow Your Horn.srt
Format : SubRip
File size : 934 Bytes

Text
Format : SubRip
Compression mode : Lossless

General
Complete name : H:\The Mishaps of Musty Suffer\1916 Going Up\1916 Going Up.avi
Format : AVI
Format/Info : Audio Video Interleave
File size : 218 MiB
Duration : 12mn 1s
Overall bit rate : 2 535 Kbps
Writing application : VirtualDubMod 1.5.10.2 (build 2540/release)
Writing library : VirtualDubMod build 2540/release

Video
ID : 0
Format : MPEG-4 Visual
Format profile : Advanced Simple@L5
Format settings, BVOP : 1
Format settings, QPel : No
Format settings, GMC : No warppoints
Format settings, Matrix : Default (MPEG)
Codec ID : XVID
Codec ID/Hint : XviD
Duration : 12mn 1s
Bit rate : 2 333 Kbps
Width : 608 pixels
Height : 448 pixels
Display aspect ratio : 4:3
Frame rate : 23.976 fps
Color space : YUV
Chroma subsampling : 4:2:0
Bit depth : 8 bits
Scan type : Progressive
Compression mode : Lossy
Bits/(Pixel*Frame) : 0.357
Stream size : 201 MiB (92%)
Writing library : XviD 1.2.0.dev47 (UTC 2006-11-01)

Audio
ID : 1
Format : AC-3
Format/Info : Audio Coding 3
Mode extension : CM (complete main)
Format settings, Endianness : Big
Codec ID : 2000
Duration : 12mn 1s
Bit rate mode : Constant
Bit rate : 192 Kbps
Channel(s) : 2 channels
Channel positions : Front: L R
Sampling rate : 48.0 KHz
Bit depth : 16 bits
Compression mode : Lossy
Stream size : 16.5 MiB (8%)
Alignment : Split accross interleaves
Interleave, duration : 42 ms (1.00 video frame)
Interleave, preload duration : 500 ms

General
Complete name : H:\The Mishaps of Musty Suffer\1916 Going Up\1916 Going Up.srt
Format : SubRip
File size : 1.22 KiB

Text
Format : SubRip
Compression mode : Lossless

General
Complete name : H:\The Mishaps of Musty Suffer\1916 Just Imagination\1916 Just Imagination.avi
Format : AVI
Format/Info : Audio Video Interleave
File size : 242 MiB
Duration : 13mn 58s
Overall bit rate : 2 415 Kbps
Writing application : VirtualDubMod 1.5.10.2 (build 2540/release)
Writing library : VirtualDubMod build 2540/release

Video
ID : 0
Format : MPEG-4 Visual
Format profile : Advanced Simple@L5
Format settings, BVOP : 1
Format settings, QPel : No
Format settings, GMC : No warppoints
Format settings, Matrix : Default (MPEG)
Codec ID : XVID
Codec ID/Hint : XviD
Duration : 13mn 58s
Bit rate : 2 214 Kbps
Width : 624 pixels
Height : 464 pixels
Display aspect ratio : 4:3
Frame rate : 23.976 fps
Color space : YUV
Chroma subsampling : 4:2:0
Bit depth : 8 bits
Scan type : Progressive
Compression mode : Lossy
Bits/(Pixel*Frame) : 0.319
Stream size : 221 MiB (92%)
Writing library : XviD 1.2.0.dev47 (UTC 2006-11-01)

Audio
ID : 1
Format : AC-3
Format/Info : Audio Coding 3
Mode extension : CM (complete main)
Format settings, Endianness : Big
Codec ID : 2000
Duration : 13mn 58s
Bit rate mode : Constant
Bit rate : 192 Kbps
Channel(s) : 2 channels
Channel positions : Front: L R
Sampling rate : 48.0 KHz
Bit depth : 16 bits
Compression mode : Lossy
Stream size : 19.2 MiB (8%)
Alignment : Split accross interleaves
Interleave, duration : 42 ms (1.00 video frame)
Interleave, preload duration : 500 ms

General
Complete name : H:\The Mishaps of Musty Suffer\1916 Just Imagination\1916 Just Imagination.srt
Format : SubRip
File size : 1.50 KiB

Text
Format : SubRip
Compression mode : Lossless

General
Complete name : H:\The Mishaps of Musty Suffer\1916 Local Showers\1916 Local Showers.avi
Format : AVI
Format/Info : Audio Video Interleave
File size : 213 MiB
Duration : 11mn 40s
Overall bit rate : 2 544 Kbps
Writing application : VirtualDubMod 1.5.10.2 (build 2540/release)
Writing library : VirtualDubMod build 2540/release

Video
ID : 0
Format : MPEG-4 Visual
Format profile : Advanced Simple@L5
Format settings, BVOP : 1
Format settings, QPel : No
Format settings, GMC : No warppoints
Format settings, Matrix : Default (MPEG)
Codec ID : XVID
Codec ID/Hint : XviD
Duration : 11mn 40s
Bit rate : 2 343 Kbps
Width : 624 pixels
Height : 464 pixels
Display aspect ratio : 4:3
Frame rate : 23.976 fps
Color space : YUV
Chroma subsampling : 4:2:0
Bit depth : 8 bits
Scan type : Progressive
Compression mode : Lossy
Bits/(Pixel*Frame) : 0.337
Stream size : 196 MiB (92%)
Writing library : XviD 1.2.0.dev47 (UTC 2006-11-01)

Audio
ID : 1
Format : AC-3
Format/Info : Audio Coding 3
Mode extension : CM (complete main)
Format settings, Endianness : Big
Codec ID : 2000
Duration : 11mn 40s
Bit rate mode : Constant
Bit rate : 192 Kbps
Channel(s) : 2 channels
Channel positions : Front: L R
Sampling rate : 48.0 KHz
Bit depth : 16 bits
Compression mode : Lossy
Stream size : 16.0 MiB (8%)
Alignment : Split accross interleaves
Interleave, duration : 42 ms (1.00 video frame)
Interleave, preload duration : 500 ms

General
Complete name : H:\The Mishaps of Musty Suffer\1916 Local Showers\1916 Local Showers.srt
Format : SubRip
File size : 1.67 KiB

Text
Format : SubRip
Compression mode : Lossless

General
Complete name : H:\The Mishaps of Musty Suffer\1916 Out Of Order\1916 Out Of Order.avi
Format : AVI
Format/Info : Audio Video Interleave
File size : 223 MiB
Duration : 12mn 15s
Overall bit rate : 2 545 Kbps
Writing application : VirtualDubMod 1.5.10.2 (build 2540/release)
Writing library : VirtualDubMod build 2540/release

Video
ID : 0
Format : MPEG-4 Visual
Format profile : Advanced Simple@L5
Format settings, BVOP : 1
Format settings, QPel : No
Format settings, GMC : No warppoints
Format settings, Matrix : Default (MPEG)
Codec ID : XVID
Codec ID/Hint : XviD
Duration : 12mn 15s
Bit rate : 2 343 Kbps
Width : 704 pixels
Height : 528 pixels
Display aspect ratio : 4:3
Frame rate : 23.976 fps
Color space : YUV
Chroma subsampling : 4:2:0
Bit depth : 8 bits
Scan type : Progressive
Compression mode : Lossy
Bits/(Pixel*Frame) : 0.263
Stream size : 205 MiB (92%)
Writing library : XviD 1.2.0.dev47 (UTC 2006-11-01)

Audio
ID : 1
Format : MPEG Audio
Format version : Version 1
Format profile : Layer 3
Mode : Joint stereo
Mode extension : MS Stereo
Codec ID : 55
Codec ID/Hint : MP3
Duration : 12mn 15s
Bit rate mode : Constant
Bit rate : 192 Kbps
Channel(s) : 2 channels
Sampling rate : 44.1 KHz
Compression mode : Lossy
Stream size : 16.8 MiB (8%)
Alignment : Split accross interleaves
Interleave, duration : 42 ms (1.00 video frame)
Interleave, preload duration : 500 ms
Writing library : LAME3.97

General
Complete name : H:\The Mishaps of Musty Suffer\1916 Out Of Order\1916 Out Of Order.srt
Format : SubRip
File size : 811 Bytes

Text
Format : SubRip
Compression mode : Lossless

General
Complete name : H:\The Mishaps of Musty Suffer\1916 Outs And Ins\1916 Outs And Ins.avi
Format : AVI
Format/Info : Audio Video Interleave
File size : 217 MiB
Duration : 11mn 56s
Overall bit rate : 2 544 Kbps
Writing application : VirtualDubMod 1.5.10.2 (build 2540/release)
Writing library : VirtualDubMod build 2540/release

Video
ID : 0
Format : MPEG-4 Visual
Format profile : Advanced Simple@L5
Format settings, BVOP : 1
Format settings, QPel : No
Format settings, GMC : No warppoints
Format settings, Matrix : Default (MPEG)
Codec ID : XVID
Codec ID/Hint : XviD
Duration : 11mn 56s
Bit rate : 2 343 Kbps
Width : 624 pixels
Height : 464 pixels
Display aspect ratio : 4:3
Frame rate : 23.976 fps
Color space : YUV
Chroma subsampling : 4:2:0
Bit depth : 8 bits
Scan type : Progressive
Compression mode : Lossy
Bits/(Pixel*Frame) : 0.337
Stream size : 200 MiB (92%)
Writing library : XviD 1.2.0.dev47 (UTC 2006-11-01)

Audio
ID : 1
Format : AC-3
Format/Info : Audio Coding 3
Mode extension : CM (complete main)
Format settings, Endianness : Big
Codec ID : 2000
Duration : 11mn 56s
Bit rate mode : Constant
Bit rate : 192 Kbps
Channel(s) : 2 channels
Channel positions : Front: L R
Sampling rate : 48.0 KHz
Bit depth : 16 bits
Compression mode : Lossy
Stream size : 16.4 MiB (8%)
Alignment : Split accross interleaves
Interleave, duration : 42 ms (1.00 video frame)
Interleave, preload duration : 500 ms

General
Complete name : H:\The Mishaps of Musty Suffer\1916 Outs And Ins\1916 Outs And Ins.srt
Format : SubRip
File size : 896 Bytes

Text
Format : SubRip
Compression mode : Lossless

General
Complete name : H:\The Mishaps of Musty Suffer\1916 Showing Some Speed\1916 Showing Some Speed.avi
Format : AVI
Format/Info : Audio Video Interleave
File size : 226 MiB
Duration : 12mn 25s
Overall bit rate : 2 544 Kbps
Writing application : VirtualDubMod 1.5.10.2 (build 2540/release)
Writing library : VirtualDubMod build 2540/release

Video
ID : 0
Format : MPEG-4 Visual
Format profile : Advanced Simple@L5
Format settings, BVOP : 1
Format settings, QPel : No
Format settings, GMC : No warppoints
Format settings, Matrix : Default (MPEG)
Codec ID : XVID
Codec ID/Hint : XviD
Duration : 12mn 25s
Bit rate : 2 343 Kbps
Width : 704 pixels
Height : 528 pixels
Display aspect ratio : 4:3
Frame rate : 23.976 fps
Color space : YUV
Chroma subsampling : 4:2:0
Bit depth : 8 bits
Scan type : Progressive
Compression mode : Lossy
Bits/(Pixel*Frame) : 0.263
Stream size : 208 MiB (92%)
Writing library : XviD 1.2.0.dev47 (UTC 2006-11-01)

Audio
ID : 1
Format : MPEG Audio
Format version : Version 1
Format profile : Layer 3
Mode : Joint stereo
Mode extension : MS Stereo
Codec ID : 55
Codec ID/Hint : MP3
Duration : 12mn 25s
Bit rate mode : Constant
Bit rate : 192 Kbps
Channel(s) : 2 channels
Sampling rate : 44.1 KHz
Compression mode : Lossy
Stream size : 17.1 MiB (8%)
Alignment : Split accross interleaves
Interleave, duration : 42 ms (1.00 video frame)
Interleave, preload duration : 500 ms
Writing library : LAME3.97

General
Complete name : H:\The Mishaps of Musty Suffer\1916 Showing Some Speed\1916 Showing Some Speed.srt
Format : SubRip
File size : 855 Bytes

Text
Format : SubRip
Compression mode : Lossless

General
Complete name : H:\The Mishaps of Musty Suffer\1916 Stricktly Private\1916 Stricktly Private.avi
Format : AVI
Format/Info : Audio Video Interleave
File size : 242 MiB
Duration : 13mn 52s
Overall bit rate : 2 444 Kbps
Writing application : VirtualDubMod 1.5.10.2 (build 2540/release)
Writing library : VirtualDubMod build 2540/release

Video
ID : 0
Format : MPEG-4 Visual
Format profile : Advanced Simple@L5
Format settings, BVOP : 1
Format settings, QPel : No
Format settings, GMC : No warppoints
Format settings, Matrix : Default (MPEG)
Codec ID : XVID
Codec ID/Hint : XviD
Duration : 13mn 52s
Bit rate : 2 243 Kbps
Width : 608 pixels
Height : 464 pixels
Display aspect ratio : 4:3
Frame rate : 23.976 fps
Color space : YUV
Chroma subsampling : 4:2:0
Bit depth : 8 bits
Scan type : Progressive
Compression mode : Lossy
Bits/(Pixel*Frame) : 0.332
Stream size : 222 MiB (92%)
Writing library : XviD 1.2.0.dev47 (UTC 2006-11-01)

Audio
ID : 1
Format : AC-3
Format/Info : Audio Coding 3
Mode extension : CM (complete main)
Format settings, Endianness : Big
Codec ID : 2000
Duration : 13mn 52s
Bit rate mode : Constant
Bit rate : 192 Kbps
Channel(s) : 2 channels
Channel positions : Front: L R
Sampling rate : 48.0 KHz
Bit depth : 16 bits
Compression mode : Lossy
Stream size : 19.0 MiB (8%)
Alignment : Split accross interleaves
Interleave, duration : 42 ms (1.00 video frame)
Interleave, preload duration : 500 ms

General
Complete name : H:\The Mishaps of Musty Suffer\1916 Stricktly Private\1916 Stricktly Private.srt
Format : SubRip
File size : 1.07 KiB

Text
Format : SubRip
Compression mode : Lossless

General
Complete name : H:\The Mishaps of Musty Suffer\1916 The Lightning Bell-hop\1916 The Lightning Bell-hop.avi
Format : AVI
Format/Info : Audio Video Interleave
File size : 239 MiB
Duration : 13mn 15s
Overall bit rate : 2 516 Kbps
Writing application : VirtualDubMod 1.5.10.2 (build 2540/release)
Writing library : VirtualDubMod build 2540/release

Video
ID : 0
Format : MPEG-4 Visual
Format profile : Advanced Simple@L5
Format settings, BVOP : 1
Format settings, QPel : No
Format settings, GMC : No warppoints
Format settings, Matrix : Default (MPEG)
Codec ID : XVID
Codec ID/Hint : XviD
Duration : 13mn 15s
Bit rate : 2 315 Kbps
Width : 624 pixels
Height : 464 pixels
Display aspect ratio : 4:3
Frame rate : 23.976 fps
Color space : YUV
Chroma subsampling : 4:2:0
Bit depth : 8 bits
Scan type : Progressive
Compression mode : Lossy
Bits/(Pixel*Frame) : 0.333
Stream size : 220 MiB (92%)
Writing library : XviD 1.2.0.dev47 (UTC 2006-11-01)

Audio
ID : 1
Format : AC-3
Format/Info : Audio Coding 3
Mode extension : CM (complete main)
Format settings, Endianness : Big
Codec ID : 2000
Duration : 13mn 15s
Bit rate mode : Constant
Bit rate : 192 Kbps
Channel(s) : 2 channels
Channel positions : Front: L R
Sampling rate : 48.0 KHz
Bit depth : 16 bits
Compression mode : Lossy
Stream size : 18.2 MiB (8%)
Alignment : Split accross interleaves
Interleave, duration : 42 ms (1.00 video frame)
Interleave, preload duration : 500 ms

General
Complete name : H:\The Mishaps of Musty Suffer\1916 The Lightning Bell-hop\1916 The Lightning Bell-hop.srt
Format : SubRip
File size : 642 Bytes

Text
Format : SubRip
Compression mode : Lossless

General
Complete name : H:\The Mishaps of Musty Suffer\1916 While You Wait\1916 While You Wait.avi
Format : AVI
Format/Info : Audio Video Interleave
File size : 246 MiB
Duration : 13mn 38s
Overall bit rate : 2 516 Kbps
Writing application : VirtualDubMod 1.5.10.2 (build 2540/release)
Writing library : VirtualDubMod build 2540/release

Video
ID : 0
Format : MPEG-4 Visual
Format profile : Advanced Simple@L5
Format settings, BVOP : 1
Format settings, QPel : No
Format settings, GMC : No warppoints
Format settings, Matrix : Default (MPEG)
Codec ID : XVID
Codec ID/Hint : XviD
Duration : 13mn 38s
Bit rate : 2 315 Kbps
Width : 624 pixels
Height : 464 pixels
Display aspect ratio : 4:3
Frame rate : 23.976 fps
Color space : YUV
Chroma subsampling : 4:2:0
Bit depth : 8 bits
Scan type : Progressive
Compression mode : Lossy
Bits/(Pixel*Frame) : 0.333
Stream size : 226 MiB (92%)
Writing library : XviD 1.2.0.dev47 (UTC 2006-11-01)

Audio
ID : 1
Format : AC-3
Format/Info : Audio Coding 3
Mode extension : CM (complete main)
Format settings, Endianness : Big
Codec ID : 2000
Duration : 13mn 38s
Bit rate mode : Constant
Bit rate : 192 Kbps
Channel(s) : 2 channels
Channel positions : Front: L R
Sampling rate : 48.0 KHz
Bit depth : 16 bits
Compression mode : Lossy
Stream size : 18.7 MiB (8%)
Alignment : Split accross interleaves
Interleave, duration : 42 ms (1.00 video frame)
Interleave, preload duration : 500 ms

General
Complete name : H:\The Mishaps of Musty Suffer\1916 While You Wait\1916 While You Wait.srt
Format : SubRip
File size : 1.01 KiB

Text
Format : SubRip
Compression mode : Lossless

General
Complete name : H:\The Mishaps of Musty Suffer\1917 Spliced And Iced\1917 Spliced And Iced.avi
Format : AVI
Format/Info : Audio Video Interleave
File size : 225 MiB
Duration : 12mn 22s
Overall bit rate : 2 544 Kbps
Writing application : VirtualDubMod 1.5.10.2 (build 2540/release)
Writing library : VirtualDubMod build 2540/release

Video
ID : 0
Format : MPEG-4 Visual
Format profile : Advanced Simple@L5
Format settings, BVOP : 1
Format settings, QPel : No
Format settings, GMC : No warppoints
Format settings, Matrix : Default (MPEG)
Codec ID : XVID
Codec ID/Hint : XviD
Duration : 12mn 22s
Bit rate : 2 343 Kbps
Width : 624 pixels
Height : 464 pixels
Display aspect ratio : 4:3
Frame rate : 23.976 fps
Color space : YUV
Chroma subsampling : 4:2:0
Bit depth : 8 bits
Scan type : Progressive
Compression mode : Lossy
Bits/(Pixel*Frame) : 0.337
Stream size : 207 MiB (92%)
Writing library : XviD 1.2.0.dev47 (UTC 2006-11-01)

Audio
ID : 1
Format : AC-3
Format/Info : Audio Coding 3
Mode extension : CM (complete main)
Format settings, Endianness : Big
Codec ID : 2000
Duration : 12mn 22s
Bit rate mode : Constant
Bit rate : 192 Kbps
Channel(s) : 2 channels
Channel positions : Front: L R
Sampling rate : 48.0 KHz
Bit depth : 16 bits
Compression mode : Lossy
Stream size : 17.0 MiB (8%)
Alignment : Split accross interleaves
Interleave, duration : 42 ms (1.00 video frame)
Interleave, preload duration : 500 ms

General
Complete name : H:\The Mishaps of Musty Suffer\1917 Spliced And Iced\1917 Spliced And Iced.srt
Format : SubRip
File size : 1.27 KiB

Text
Format : SubRip
Compression mode : Lossless

General
Complete name : H:\The Mishaps of Musty Suffer\1917 Musty's Vacation\1917 Musty's Vacation.avi
Format : AVI
Format/Info : Audio Video Interleave
File size : 268 MiB
Duration : 14mn 43s
Overall bit rate : 2 543 Kbps
Writing application : VirtualDubMod 1.5.10.2 (build 2540/release)
Writing library : VirtualDubMod build 2540/release

Video
ID : 0
Format : MPEG-4 Visual
Format profile : Advanced Simple@L5
Format settings, BVOP : 1
Format settings, QPel : No
Format settings, GMC : No warppoints
Format settings, Matrix : Default (MPEG)
Codec ID : XVID
Codec ID/Hint : XviD
Duration : 14mn 43s
Bit rate : 2 341 Kbps
Width : 704 pixels
Height : 528 pixels
Display aspect ratio : 4:3
Frame rate : 23.976 fps
Color space : YUV
Chroma subsampling : 4:2:0
Bit depth : 8 bits
Scan type : Progressive
Compression mode : Lossy
Bits/(Pixel*Frame) : 0.263
Stream size : 247 MiB (92%)
Writing library : XviD 1.2.0.dev47 (UTC 2006-11-01)

Audio
ID : 1
Format : MPEG Audio
Format version : Version 1
Format profile : Layer 3
Mode : Joint stereo
Mode extension : MS Stereo
Codec ID : 55
Codec ID/Hint : MP3
Duration : 14mn 43s
Bit rate mode : Constant
Bit rate : 192 Kbps
Channel(s) : 2 channels
Sampling rate : 44.1 KHz
Compression mode : Lossy
Stream size : 20.2 MiB (8%)
Alignment : Split accross interleaves
Interleave, duration : 42 ms (1.00 video frame)
Interleave, preload duration : 500 ms
Writing library : LAME3.97

General
Complete name : H:\The Mishaps of Musty Suffer\1917 Musty's Vacation\1917 Musty's Vacation.srt
Format : SubRip
File size : 1.67 KiB

Text
Format : SubRip
Compression mode : Lossless



1916 Труби в свой горн! / Blow Your Horn!
http://www.imdb.com/title/tt1594448/
12 mins - this "whirl" finds Musty working as a bike messenger in the wilds of either the Bronx or Fort Lee, where he delivers building supplies and lingerie items. In the final third of the film Watson recreates a routine with two mannequins that was original a circus "walkabout" gag.
Продолжительность: 12:31
Выполняя поручения в качестве посыльного, Масти весело колесит по пыльным дорогам захолустья на оставленном кем-то без присмотра велосипеде, с упорством преодолевая все преграды стоящие на его пути.

1916 Выбиваясь в люди / Going Up
http://www.imdb.com/title/tt1263748/
12 mins - itinerant tramp stumbles upon old pal Dippy Mary, who allows him to spend the night at the home she is caring for, but a beer bath and a serenade by a German band make for a difficult night.
Продолжительность: 12:01
О том, как Масти разрешили похозяйничать в богатом доме на время отсутствия хозяев и чем это закончилось.

1916 Чистое воображение / Just Imagination
http://www.imdb.com/title/tt1594497/
14 mins - when the Fairy Tramp appears before Musty, he wishes for a job, but is instead treated to a series of mental experiments in one of the most surreal films in the series.
Продолжительность: 13:58
Сюрреалистические злоключения Масти в роли подопытного у двух специалистов по части воображения.

1916 Локальные ливни / Local Showers
http://www.imdb.com/title/tt1594511/
12 mins - Musty must brave a dentist's office to have an infected tooth pulled in a bizarre film that anticipates the mania of Bob Clampett's WB cartoons.
Продолжительность: 11:40
Неожиданно воспалившийся зуб Масти вынуждает его нанести визит дантисту, в надежде на безболезненное удаление зуба.

1916 Вышел из строя / Out Of Order (HDrip)
http://www.imdb.com/title/tt1594526/
12 mins - Musty is standing around in a state of confusion, so his fairy godfather appears to find him a job as a general factotum at an amusement gallery. Musty serves as a bootblack, a ticket-taker, a target at the shooting gallery and a rope to block off a non-working escalator.
Продолжительность: 12:05
Как Масти раскрывает свои дарования в роли зазывалы в Галерее развлечений.

1916 Входы и выходы / Outs And Ins
http://www.imdb.com/title/tt1594527/
12 mins - Musty works at a large indoor arcade, the set-piece of which involves his culinary and strangely sadistic work on the kitchen side of an automat.
Продолжительность: 11:56
О том, какие Масти творит чудеса, работая в ресторане поваром-официантом.

1916 Поддай скорости / Showing Some Speed (HDrip)
http://www.imdb.com/title/tt1594546/
12 mins - Musty Suffer is a bicycle messenger in this episode of the series. He takes his work very seriously, when he can be woken, and breaks into houses to deliver the goods.
Продолжительность: 12:25
Новые приключения Масти в роли посыльного показывают пример серьёзного отношения к выполнению своих обязанностей.

1916 Огласке не подлежит / Stricktly Private
http://www.imdb.com/title/tt1594552/?ref_=fn_al_tt_1
13 mins - Musty Suffer ventures into the badlands of suburban New Jersey, where he captures a wild pantomime horse and trains him. Next he wishes to be a cab man, so his fairy godfather appears and creates a coach and uniform for Musty. After that, things get silly.
Продолжительность: 13:52
В бесплодных землях Нью-Джерси Масти ловит дикую лошадь, наподобие той, что в цирке изображают в своих пантомимах двое клоунов. Затем получает от своего небесного покровителя униформу извозчика, карету и отправляется на поиски клиентов.

1916 Расторопный коридорный / The Lightning Bell-hop
http://www.imdb.com/title/tt1594565/
13 mins - Musty gets a job in a hotel where his duties as bellhop include being the elevator's counterweight and the hotel's maintenance man.
Продолжительность: 13:15
На этот раз Масти показывает себя во всём блеске в роли самого расторопного коридорного в мире.

1916 А пока вы ожидаете… / While You Wait
http://www.imdb.com/title/tt1594578/
14 mins - still looking for work, Musty tries an employment office and winds up with three different jobs…all at the same time for the same employer.
Продолжительность: 13:38
Здесь Масти демонстрирует свои способности как мастер перевоплощения, умудряясь одновременно совмещать работу на нескольких "должностях".

1917 Женился-сгубился / Spliced And Iced
http://www.imdb.com/title/tt0008620/
12 mins - Musty tries to finally settle down at long last, and prepared to marry the woman of his dreams, but life with wifey and her father turn out to be a nightmare after the wedding.
Продолжительность: 12:22
О том, как Масти поспешно решается обзавестись семьёй и к чему это в итоге приводит.

1917 Масти в отпуске / Musty's Vacation (HDrip)
http://www.imdb.com/title/tt0956201/
14 mins - Made during the collapse of the Motion Pictures Patents Trust, this comedy is a clear exemplar of the problems that the Trust suffered from; they may have held the patents and the money at the start, but by the time this movie came along, it was about ten years out of date and the audience didn't want it, nor had the audience wanted it for years.
Продолжительность: 14:43
В один из счастливых дней Масти находит книжку с талонами на питание. И чтобы талоны не пропали даром, он решает уйти в отпуск.

The Mishaps of Musty Suffer - Collection of Short Comedy Movies 1916-1917

The Mishaps of Musty Suffer - Collection of Short Comedy Movies 1916-1917

The Mishaps of Musty Suffer - Collection of Short Comedy Movies 1916-1917

The Mishaps of Musty Suffer - Collection of Short Comedy Movies 1916-1917

The Mishaps of Musty Suffer - Collection of Short Comedy Movies 1916-1917

The Mishaps of Musty Suffer - Collection of Short Comedy Movies 1916-1917

The Mishaps of Musty Suffer - Collection of Short Comedy Movies 1916-1917

The Mishaps of Musty Suffer - Collection of Short Comedy Movies 1916-1917


All thanks for nocracker and VitoVitelly