The Night Watchmen (2017)

Posted By: Without
The Night Watchmen (2017)

The Night Watchmen (2017)
BRRip | AVI | 720x304 | XviD@2042 kb/s | English AC3@448 kb/s | 6 channels | 1 h 19 min | 1.39 GB
Genre: Comedy, Horror

Three inept night watchmen, aided by a young rookie and a fearless tabloid journalist, fight an epic battle for their lives against a horde of hungry vampires.

IMDB - 9 wins & 3 nominations.


General
The Night Watchmen.2017.BDRip.XviD.AC3-EVO\The Night Watchmen.2017.BDRip.XviD.AC3-EVO.avi
Format : AVI
Format/Info : Audio Video Interleave
File size : 1.39 GiB
Duration : 1 h 19 min
Overall bit rate : 2 499 kb/s
Writing library : VirtualDub build 32593/release

Video
ID : 0
Format : MPEG-4 Visual
Format profile : Advanced Simple@L5
Format settings, BVOP : 2
Format settings, QPel : No
Format settings, GMC : No warppoints
Format settings, Matrix : Default (H.263)
Muxing mode : Packed bitstream
Codec ID : XVID
Codec ID/Hint : XviD
Duration : 1 h 19 min
Bit rate : 2 042 kb/s
Width : 720 pixels
Height : 304 pixels
Display aspect ratio : 2.35:1
Frame rate : 23.976 (24000/1001) FPS
Color space : YUV
Chroma subsampling : 4:2:0
Bit depth : 8 bits
Scan type : Progressive
Compression mode : Lossy
Bits/(Pixel*Frame) : 0.389
Stream size : 1.14 GiB (82%)
Writing library : XviD 66

Audio
ID : 1
Format : AC-3
Format/Info : Audio Coding 3
Mode extension : CM (complete main)
Format settings, Endianness : Big
Codec ID : 2000
Duration : 1 h 19 min
Bit rate mode : Constant
Bit rate : 448 kb/s
Channel(s) : 6 channels
Channel positions : Front: L C R, Side: L R, LFE
Sampling rate : 48.0 kHz
Frame rate : 31.250 FPS (1536 spf)
Bit depth : 16 bits
Compression mode : Lossy
Stream size : 256 MiB (18%)
Alignment : Aligned on interleaves
Interleave, duration : 42 ms (1.00 video frame)
Interleave, preload duration : 512 ms


BRRip Screenshots

The Night Watchmen (2017)

The Night Watchmen (2017)

The Night Watchmen (2017)


Come Visit My Blog (•‿•)