Subcategories

The Red Shoes (1948)

Posted By: Mindsnatcher
The Red Shoes (1948)

The Red Shoes (1948)
720p Blu-rayRip | MKV | AVC @ 3.88 Mbps, 23.976 fps | 988 x 720 | 02:15:14 | 4.36 GB
Audio: English: AC-3 2.0, 48kHz @ 640bps | Subtitle: English (srt)
Directors: Michael Powell, Emeric Pressburger | Stars: Anton Walbrook, Marius Goring, Moira Shearer | Country: UK
Genre: Drama, Music, Romance
The Red Shoes (1948)

IMDb

The Red Shoes (1948)
The Red Shoes (1948)
The Red Shoes (1948)
The Red Shoes (1948)
The Red Shoes (1948)



General
Unique ID : 254625497491757246292594161735887251847 (0xBF8F164719632BB889DF2C908F806987)
Complete name : H:\00000001. The.Red.Shoes.1948.Bluray.720p.AC3.x264-CHD\The Red Shoes (1948) .mkv
Format : Matroska
Format version : Version 2
File size : 4.36 GiB
Duration : 2h 15mn
Overall bit rate : 4 620 Kbps
Encoded date : UTC 2009-07-18 02:50:12
Writing application : mkvmerge v2.9.5 ('Tu es le seul') built on Jun 7 2009 11:07:07
Writing library : libebml v0.7.7 + libmatroska v0.8.1

Video
ID : 1
Format : AVC
Format/Info : Advanced Video Codec
Format profile : High@L4.1
Format settings, CABAC : Yes
Format settings, ReFrames : 3 frames
Codec ID : V_MPEG4/ISO/AVC
Duration : 2h 15mn
Bit rate : 3 979 Kbps
Width : 988 pixels
Height : 720 pixels
Display aspect ratio : 1.372
Frame rate mode : Constant
Frame rate : 23.976 fps
Color space : YUV
Chroma subsampling : 4:2:0
Bit depth : 8 bits
Scan type : Progressive
Bits/(Pixel*Frame) : 0.233
Stream size : 3.67 GiB (84%)
Title : The.Red.Shoes.1948.Bluray.720p.AC3.x264-CHD
Writing library : x264 core 67 r1173M f6d3166
Encoding settings : cabac=1 / ref=3 / deblock=1:-3:-3 / analyse=0x3:0x113 / me=umh / subme=8 / psy_rd=1.1:0.2 / mixed_ref=1 / me_range=26 / chroma_me=1 / trellis=1 / 8x8dct=1 / cqm=2 / deadzone=6,4 / chroma_qp_offset=-6 / threads=6 / nr=0 / decimate=1 / mbaff=0 / bframes=3 / b_pyramid=1 / b_adapt=1 / b_bias=0 / direct=3 / wpredb=1 / keyint=250 / keyint_min=25 / scenecut=40 / rc=2pass / bitrate=3979 / ratetol=1.0 / qcomp=1.00 / qpmin=10 / qpmax=51 / qpstep=4 / cplxblur=20.0 / qblur=0.5 / ip_ratio=1.40 / pb_ratio=1.30 / aq=1:0.80 / zones=191600,194544,b=0.3
Language : English
Default : Yes
Forced : Yes

Audio
ID : 2
Format : AC-3
Format/Info : Audio Coding 3
Mode extension : CM (complete main)
Format settings, Endianness : Big
Codec ID : A_AC3
Duration : 2h 15mn
Bit rate mode : Constant
Bit rate : 640 Kbps
Channel count : 2 channels
Channel positions : Front: L R
Sampling rate : 48.0 KHz
Bit depth : 16 bits
Compression mode : Lossy
Stream size : 619 MiB (14%)
Title : AC3, English, 2.0 channels,640kbps
Language : English
Default : Yes
Forced : Yes


Last year legendary cinematographer Jack Cardiff passed away. Only a few weeks after his funeral, a newly restored print of Michael Powell and Emeric Pressburger's beloved classic The Red Shoes, one of many films Mr. Cardiff worked on, was screened at the Cannes Film Festival. I want to believe that somehow Mr. Cardiff saw the restored print in its entirety. The Red Shoes is comprised of two different stories. The first one is rather dark and unsettling. It is about a young and very ambitious ballerina, Mrs. Victoria Page (Moira Shearer), who impresses the great impresario Mr. Boris Lermontov (Anton Walbrook). When his prima ballerina announces that she is going to get married, Mr. Lermontov gives Mrs. Page a chance to shine. The young ballerina does not disappoint. Mr. Lermontov is so impressed with her performance that he immediately decides to stage Hans Christian Andersen's The Red Shoes, a magical tale about a pair of shoes that transform the person who wears them into a brilliant dancer. When rehearsals begin, however, Mrs. Page falls in love with the ballet company's newly appointed conductor, Julian Craster (Marius Goring). Mr. Lermontov goes berserk and confronts the couple, insisting that Mrs. Page must choose between ballet and the man she loves. The second story in the film is the one of the actual ballet, The Red Shoes. It cannot be described with simple words. One has to see the ballet in order to fully understand why Michael Powell and Emeric Pressburger's film is considered as one of the greatest cinematic achievements. During the years, The Red Shoes has been praised for its stylish symbiosis of dance and music, innovative use of color and brilliant photography. Countless articles have been written about Moira Shearer, Leonide Massine, and Robert Helpmann. In 1949, Brian Easdale rightfully won an Oscar for Best Music, Scoring of a Dramatic or Comedy Picture that inspired many young composers. What is often neglected by those who have praised The Red Shoes, however, is the fact that the film is also an effective drama, one with unusually complex characters. Furthermore, The Red Shoes also harbors serious themes about commitment, responsibility and the meaning of life. These two contrasting sides of The Red Shoes - one preoccupied with art and beauty, the other focused on a tragic but realistic love affair - are what makes the film so fascinating to behold. The masterful blending of the surreal with the real is indeed very effective. Undoubtedly the Archers' best film, The Red Shoes offers spectacular views from a number of locations - Monte Carlo, London, and Paris. Cinematographer Jack Cardiff's camera speed manipulations - meant to convince the viewer that the dancers were indeed capable of hanging in the air - were considered groundbreaking at the time. In the United States, The Red Shoes enjoyed an unprecedented 110-week run at The Bijou in New York City before it was picked up for national distribution by Universal Pictures. Since then, it has inspired a number of successful Broadway musicals.


Please Report Dead Links