Subcategories

The Skeleton Twins (2014)

Posted By: blizzards
The Skeleton Twins (2014)

The Skeleton Twins (2014)
Blu-Ray | ISO | AVC, 1920x1080, ~ 29 Mbps | 1hr 33min | 35.2 GB
English: DTS-HD MA, 5.1 ch, 3430 kbps, 24-bit; Spanish: AC3, 6 ch, 448 kbps; English: AC3, 2 ch, 192 kbps
Subtitles: English, Spanish
Genre: Drama

Having both coincidentally cheated death on the same day, estranged twins reunite with the possibility of mending their relationship.

Starring: Kristen Wiig, Bill Hader, Boyd Holbrook, Ty Burrell, Luke Wilson, Kathleen Rose Perkins
Director: Craig Johnson


Disc Title: SKELETONTWINS_HDACCESS
Disc Size: 38 423 649 253 bytes
Protection: AACS
BD-Java: Yes
BDInfo: 0.5.8

Notes:

BDINFO HOME:
Cinema Squid
http://www.cinemasquid.com/blu-ray/tools/bdinfo

INCLUDES FORUMS REPORT FOR:
AVS Forum Blu-ray Audio and Video Specifications Thread
http://www.avsforum.com/avs-vb/showthread.php?t=1155731


********************
PLAYLIST: 00000.MPLS
********************

<–- BEGIN FORUMS PASTE –->
                                                                                                                Total   Video                                             
Title                                                           Codec   Length  Movie Size      Disc Size       Bitrate Bitrate Main Audio Track                          Secondary Audio Track
-----                                                           ------  ------- --------------  --------------  ------- ------- ------------------                        ---------------------
00000.MPLS                                                      AVC     1:33:05 25 169 418 240  38 423 649 253  36,05   29,78   DTS-HD Master 5.1 3430Kbps (48kHz/24-bit) 


DISC INFO:

Disc Title:     SKELETONTWINS_HDACCESS
Disc Size:      38 423 649 253 bytes
Protection:     AACS
BD-Java:        Yes
BDInfo:         0.5.8

PLAYLIST REPORT:

Name:                   00000.MPLS
Length:                 1:33:05.621 (h:m:s.ms)
Size:                   25 169 418 240 bytes
Total Bitrate:          36,05 Mbps

VIDEO:

Codec                   Bitrate             Description     
-----                   -------             -----------     
MPEG-4 AVC Video        29781 kbps          1080p / 23,976 fps / 16:9 / High Profile 4.1

AUDIO:

Codec                           Language        Bitrate         Description     
-----                           --------        -------         -----------     
DTS-HD Master Audio             English         3430 kbps       5.1 / 48 kHz / 3430 kbps / 24-bit (DTS Core: 5.1 / 48 kHz / 1509 kbps / 24-bit)
Dolby Digital Audio             Spanish         448 kbps        5.1 / 48 kHz / 448 kbps
Dolby Digital Audio             English         192 kbps        2.0 / 48 kHz / 192 kbps
Dolby Digital Audio             English         192 kbps        2.0 / 48 kHz / 192 kbps

SUBTITLES:

Codec                           Language        Bitrate         Description     
-----                           --------        -------         -----------     
Presentation Graphics           English         36,575 kbps                     
Presentation Graphics           English         40,125 kbps                     
Presentation Graphics           Spanish         32,683 kbps                     

FILES:

Name            Time In         Length          Size            Total Bitrate   
----            -------         ------          ----            -------------   
00002.M2TS      0:00:00.000     1:33:05.621     25 169 418 240  36 049          

CHAPTERS:

Number          Time In         Length          Avg Video Rate  Max 1-Sec Rate  Max 1-Sec Time  Max 5-Sec Rate  Max 5-Sec Time  Max 10Sec Rate  Max 10Sec Time  Avg Frame Size  Max Frame Size  Max Frame Time  
------          -------         ------          --------------  --------------  --------------  --------------  --------------  --------------  --------------  --------------  --------------  --------------  
1               0:00:00.000     0:06:07.367     30 510 kbps     56 117 kbps     00:03:59.781    40 230 kbps     00:03:35.506    37 834 kbps     00:00:57.432    159 047 bytes   745 741 bytes   00:04:00.782    
2               0:06:07.367     0:06:31.099     30 828 kbps     49 738 kbps     00:08:46.234    40 494 kbps     00:08:46.192    37 583 kbps     00:09:18.808    160 725 bytes   707 114 bytes   00:09:25.523    
3               0:12:38.466     0:03:52.523     32 655 kbps     46 641 kbps     00:15:08.741    40 304 kbps     00:15:08.824    37 741 kbps     00:14:22.528    170 250 bytes   758 544 bytes   00:14:29.535    
4               0:16:30.990     0:05:18.860     32 165 kbps     47 481 kbps     00:21:02.344    40 295 kbps     00:21:01.510    37 823 kbps     00:21:01.510    167 691 bytes   773 323 bytes   00:21:04.179    
5               0:21:49.850     0:05:13.271     30 721 kbps     44 544 kbps     00:24:39.895    38 624 kbps     00:24:46.443    35 046 kbps     00:24:31.636    160 164 bytes   616 543 bytes   00:24:40.896    
6               0:27:03.121     0:06:03.071     31 189 kbps     43 710 kbps     00:28:50.520    39 834 kbps     00:28:46.725    37 489 kbps     00:31:20.211    162 605 bytes   725 146 bytes   00:28:52.939    
7               0:33:06.192     0:05:38.379     31 008 kbps     50 796 kbps     00:36:08.958    40 469 kbps     00:36:08.875    36 981 kbps     00:33:22.125    161 661 bytes   750 396 bytes   00:36:10.126    
8               0:38:44.572     0:05:51.851     30 409 kbps     37 410 kbps     00:43:21.307    34 528 kbps     00:43:24.768    33 729 kbps     00:43:01.829    158 537 bytes   527 648 bytes   00:41:25.524    
9               0:44:36.423     0:04:53.167     29 018 kbps     38 327 kbps     00:48:35.495    34 456 kbps     00:48:12.222    33 523 kbps     00:44:48.977    151 289 bytes   540 427 bytes   00:47:18.210    
10              0:49:29.591     0:04:52.542     32 144 kbps     45 054 kbps     00:49:29.591    40 463 kbps     00:49:29.591    37 129 kbps     00:50:47.002    167 584 bytes   738 606 bytes   00:49:32.594    
11              0:54:22.133     0:05:00.967     29 331 kbps     42 021 kbps     00:56:24.130    35 369 kbps     00:56:21.961    34 231 kbps     00:56:17.123    152 919 bytes   659 932 bytes   00:56:25.131    
12              0:59:23.101     0:05:53.102     32 855 kbps     43 095 kbps     01:00:08.229    38 906 kbps     01:00:08.104    37 575 kbps     01:04:21.524    171 288 bytes   758 142 bytes   01:05:08.279    
13              1:05:16.203     0:06:17.794     31 468 kbps     43 178 kbps     01:05:53.950    38 070 kbps     01:05:53.157    36 988 kbps     01:06:13.010    164 060 bytes   725 121 bytes   01:07:02.852    
14              1:11:33.998     0:06:31.849     32 425 kbps     43 384 kbps     01:14:16.493    38 726 kbps     01:14:12.489    36 562 kbps     01:14:07.651    169 048 bytes   723 889 bytes   01:14:17.494    
15              1:18:05.847     0:09:40.246     32 641 kbps     55 013 kbps     01:27:11.184    40 669 kbps     01:27:11.142    37 765 kbps     01:23:18.410    170 176 bytes   752 976 bytes   01:22:36.826    
16              1:27:46.094     0:05:19.527     3 815 kbps      32 993 kbps     01:32:57.947    27 665 kbps     01:32:52.024    25 693 kbps     01:32:51.399    19 892 bytes    510 886 bytes   01:32:56.404    

STREAM DIAGNOSTICS:

File            PID             Type            Codec           Language                Seconds                 Bitrate                 Bytes           Packets         
----            ---             ----            -----           --------                --------------          --------------          -------------   -----           
00002.M2TS      4113 (0x1011)   0x1B            AVC                                     5585,538                29 782                  20 793 311 858  113 085 382     
00002.M2TS      4352 (0x1100)   0x86            DTS-HD MA       eng (English)           5585,538                3 430                   2 394 882 456   13 886 043      
00002.M2TS      4353 (0x1101)   0x81            AC3             spa (Spanish)           5585,538                448                     312 795 392     1 745 510       
00002.M2TS      4354 (0x1102)   0x81            AC3             eng (English)           5585,538                192                     134 055 168     872 755         
00002.M2TS      4355 (0x1103)   0x81            AC3             eng (English)           5585,538                192                     134 031 360     872 600         
00002.M2TS      4608 (0x1200)   0x90            PGS             eng (English)           5585,538                37                      25 536 945      147 208         
00002.M2TS      4609 (0x1201)   0x90            PGS             eng (English)           5585,538                40                      28 015 728      161 701         
00002.M2TS      4610 (0x1202)   0x90            PGS             spa (Spanish)           5585,538                33                      22 819 375      132 366         

<–– END FORUMS PASTE ––>

QUICK SUMMARY:

Disc Title: SKELETONTWINS_HDACCESS
Disc Size: 38 423 649 253 bytes
Protection: AACS
BD-Java: Yes
Playlist: 00000.MPLS
Size: 25 169 418 240 bytes
Length: 1:33:05.621
Total Bitrate: 36,05 Mbps
Video: MPEG-4 AVC Video / 29781 kbps / 1080p / 23,976 fps / 16:9 / High Profile 4.1
Audio: English / DTS-HD Master Audio / 5.1 / 48 kHz / 3430 kbps / 24-bit (DTS Core: 5.1 / 48 kHz / 1509 kbps / 24-bit)
Audio: Spanish / Dolby Digital Audio / 5.1 / 48 kHz / 448 kbps
Audio: English / Dolby Digital Audio / 2.0 / 48 kHz / 192 kbps
Audio: English / Dolby Digital Audio / 2.0 / 48 kHz / 192 kbps
Subtitle: English / 36,575 kbps
Subtitle: English / 40,125 kbps
Subtitle: Spanish / 32,683 kbps


********************
PLAYLIST: 00309.MPLS
********************

<–- BEGIN FORUMS PASTE –->
                                                                                                                Total   Video                                             
Title                                                           Codec   Length  Movie Size      Disc Size       Bitrate Bitrate Main Audio Track                          Secondary Audio Track
-----                                                           ------  ------- --------------  --------------  ------- ------- ------------------                        ---------------------
00309.MPLS                                                      AVC     0:15:54 3 800 383 488   38 423 649 253  31,86   30,00   DD AC3 2.0 192Kbps                        


DISC INFO:

Disc Title:     SKELETONTWINS_HDACCESS
Disc Size:      38 423 649 253 bytes
Protection:     AACS
BD-Java:        Yes
BDInfo:         0.5.8

PLAYLIST REPORT:

Name:                   00309.MPLS
Length:                 0:15:54.370 (h:m:s.ms)
Size:                   3 800 383 488 bytes
Total Bitrate:          31,86 Mbps

VIDEO:

Codec                   Bitrate             Description     
-----                   -------             -----------     
MPEG-4 AVC Video        30000 kbps          1080p / 23,976 fps / 16:9 / High Profile 4.1

AUDIO:

Codec                           Language        Bitrate         Description     
-----                           --------        -------         -----------     
Dolby Digital Audio             English         192 kbps        2.0 / 48 kHz / 192 kbps / DN -4dB
Dolby Digital Audio             English         192 kbps        2.0 / 48 kHz / 192 kbps

FILES:

Name            Time In         Length          Size            Total Bitrate   
----            -------         ------          ----            -------------   
00017.M2TS      0:00:00.000     0:15:54.370     3 800 383 488   31 857          

CHAPTERS:

Number          Time In         Length          Avg Video Rate  Max 1-Sec Rate  Max 1-Sec Time  Max 5-Sec Rate  Max 5-Sec Time  Max 10Sec Rate  Max 10Sec Time  Avg Frame Size  Max Frame Size  Max Frame Time  
------          -------         ------          --------------  --------------  --------------  --------------  --------------  --------------  --------------  --------------  --------------  --------------  
1               0:00:00.000     0:01:28.505     30 388 kbps     47 555 kbps     00:00:45.045    40 623 kbps     00:00:52.135    37 213 kbps     00:01:02.062    158 353 bytes   580 990 bytes   00:00:47.047    
2               0:01:28.505     0:00:57.390     29 028 kbps     36 495 kbps     00:01:43.853    35 573 kbps     00:01:42.477    34 726 kbps     00:01:42.811    151 341 bytes   573 988 bytes   00:01:32.509    
3               0:02:25.895     0:01:36.971     31 859 kbps     44 967 kbps     00:02:36.322    39 717 kbps     00:02:36.030    37 672 kbps     00:02:33.027    166 098 bytes   582 526 bytes   00:03:43.097    
4               0:04:02.867     0:00:32.782     30 412 kbps     42 077 kbps     00:04:10.625    38 943 kbps     00:04:26.057    37 120 kbps     00:04:21.886    158 554 bytes   533 418 bytes   00:04:30.895    
5               0:04:35.650     0:00:47.005     22 766 kbps     43 858 kbps     00:05:11.686    40 542 kbps     00:05:08.266    37 398 kbps     00:05:08.099    118 690 bytes   547 898 bytes   00:05:16.274    
6               0:05:22.655     0:02:33.528     28 436 kbps     36 503 kbps     00:06:32.975    34 759 kbps     00:07:24.944    33 778 kbps     00:07:22.525    148 250 bytes   508 954 bytes   00:05:26.659    
7               0:07:56.184     0:00:33.408     30 907 kbps     38 183 kbps     00:08:09.363    36 950 kbps     00:08:00.855    36 448 kbps     00:08:00.938    161 135 bytes   431 643 bytes   00:08:20.208    
8               0:08:29.592     0:01:18.411     33 538 kbps     44 676 kbps     00:08:34.055    40 454 kbps     00:08:33.596    37 818 kbps     00:08:33.554    174 854 bytes   458 395 bytes   00:08:36.599    
9               0:09:48.004     0:01:15.575     30 423 kbps     37 175 kbps     00:10:53.694    35 116 kbps     00:10:44.560    34 329 kbps     00:10:44.727    158 610 bytes   769 676 bytes   00:09:52.008    
10              0:11:03.579     0:02:21.724     28 805 kbps     38 710 kbps     00:11:29.271    36 353 kbps     00:11:25.267    35 160 kbps     00:11:20.262    150 177 bytes   325 441 bytes   00:13:13.793    
11              0:13:25.304     0:01:36.012     32 844 kbps     55 168 kbps     00:13:54.166    40 687 kbps     00:13:53.499    37 832 kbps     00:13:53.499    171 232 bytes   607 854 bytes   00:14:19.149    
12              0:15:01.317     0:00:53.053     29 333 kbps     40 623 kbps     00:15:08.490    39 542 kbps     00:15:06.322    37 709 kbps     00:15:05.863    153 051 bytes   796 250 bytes   00:15:29.011    

STREAM DIAGNOSTICS:

File            PID             Type            Codec           Language                Seconds                 Bitrate                 Bytes           Packets         
----            ---             ----            -----           --------                --------------          --------------          -------------   -----           
00017.M2TS      4113 (0x1011)   0x1B            AVC                                     954,287                 30 003                  3 578 905 723   19 463 438      
00017.M2TS      4352 (0x1100)   0x81            AC3             eng (English)           954,287                 192                     22 904 064      149 115         
00017.M2TS      4353 (0x1101)   0x81            AC3             eng (English)           954,287                 192                     22 905 600      149 125         

<–– END FORUMS PASTE ––>

QUICK SUMMARY:

Disc Title: SKELETONTWINS_HDACCESS
Disc Size: 38 423 649 253 bytes
Protection: AACS
BD-Java: Yes
Playlist: 00309.MPLS
Size: 3 800 383 488 bytes
Length: 0:15:54.370
Total Bitrate: 31,86 Mbps
Video: MPEG-4 AVC Video / 30000 kbps / 1080p / 23,976 fps / 16:9 / High Profile 4.1
Audio: English / Dolby Digital Audio / 2.0 / 48 kHz / 192 kbps / DN -4dB
Audio: English / Dolby Digital Audio / 2.0 / 48 kHz / 192 kbps


********************
PLAYLIST: 00301.MPLS
********************

<–- BEGIN FORUMS PASTE –->
                                                                                                                Total   Video                                             
Title                                                           Codec   Length  Movie Size      Disc Size       Bitrate Bitrate Main Audio Track                          Secondary Audio Track
-----                                                           ------  ------- --------------  --------------  ------- ------- ------------------                        ---------------------
00301.MPLS                                                      AVC     0:15:14 3 613 280 256   38 423 649 253  31,62   30,00   DD AC3 2.0 192Kbps                        


DISC INFO:

Disc Title:     SKELETONTWINS_HDACCESS
Disc Size:      38 423 649 253 bytes
Protection:     AACS
BD-Java:        Yes
BDInfo:         0.5.8

PLAYLIST REPORT:

Name:                   00301.MPLS
Length:                 0:15:14.246 (h:m:s.ms)
Size:                   3 613 280 256 bytes
Total Bitrate:          31,62 Mbps

VIDEO:

Codec                   Bitrate             Description     
-----                   -------             -----------     
MPEG-4 AVC Video        30000 kbps          1080p / 23,976 fps / 16:9 / High Profile 4.1

AUDIO:

Codec                           Language        Bitrate         Description     
-----                           --------        -------         -----------     
Dolby Digital Audio             English         192 kbps        2.0 / 48 kHz / 192 kbps / DN -4dB

FILES:

Name            Time In         Length          Size            Total Bitrate   
----            -------         ------          ----            -------------   
00010.M2TS      0:00:00.000     0:15:14.246     3 613 280 256   31 618          

CHAPTERS:

Number          Time In         Length          Avg Video Rate  Max 1-Sec Rate  Max 1-Sec Time  Max 5-Sec Rate  Max 5-Sec Time  Max 10Sec Rate  Max 10Sec Time  Avg Frame Size  Max Frame Size  Max Frame Time  
------          -------         ------          --------------  --------------  --------------  --------------  --------------  --------------  --------------  --------------  --------------  --------------  
1               0:00:00.000     0:15:14.246     30 000 kbps     55 369 kbps     00:10:11.819    40 583 kbps     00:00:37.787    37 780 kbps     00:11:18.636    156 408 bytes   745 338 bytes   00:00:30.030    

STREAM DIAGNOSTICS:

File            PID             Type            Codec           Language                Seconds                 Bitrate                 Bytes           Packets         
----            ---             ----            -----           --------                --------------          --------------          -------------   -----           
00010.M2TS      4113 (0x1011)   0x1B            AVC                                     914,163                 30 003                  3 428 463 901   18 645 690      
00010.M2TS      4352 (0x1100)   0x81            AC3             eng (English)           914,163                 192                     21 940 992      142 845         

<–– END FORUMS PASTE ––>

QUICK SUMMARY:

Disc Title: SKELETONTWINS_HDACCESS
Disc Size: 38 423 649 253 bytes
Protection: AACS
BD-Java: Yes
Playlist: 00301.MPLS
Size: 3 613 280 256 bytes
Length: 0:15:14.246
Total Bitrate: 31,62 Mbps
Video: MPEG-4 AVC Video / 30000 kbps / 1080p / 23,976 fps / 16:9 / High Profile 4.1
Audio: English / Dolby Digital Audio / 2.0 / 48 kHz / 192 kbps / DN -4dB


********************
PLAYLIST: 00300.MPLS
********************

<–- BEGIN FORUMS PASTE –->
                                                                                                                Total   Video                                             
Title                                                           Codec   Length  Movie Size      Disc Size       Bitrate Bitrate Main Audio Track                          Secondary Audio Track
-----                                                           ------  ------- --------------  --------------  ------- ------- ------------------                        ---------------------
00300.MPLS                                                      AVC     0:12:29 2 940 868 608   38 423 649 253  31,41   29,80   DD AC3 2.0 192Kbps                        


DISC INFO:

Disc Title:     SKELETONTWINS_HDACCESS
Disc Size:      38 423 649 253 bytes
Protection:     AACS
BD-Java:        Yes
BDInfo:         0.5.8

PLAYLIST REPORT:

Name:                   00300.MPLS
Length:                 0:12:29.123 (h:m:s.ms)
Size:                   2 940 868 608 bytes
Total Bitrate:          31,41 Mbps

VIDEO:

Codec                   Bitrate             Description     
-----                   -------             -----------     
MPEG-4 AVC Video        29798 kbps          1080p / 23,976 fps / 16:9 / High Profile 4.1

AUDIO:

Codec                           Language        Bitrate         Description     
-----                           --------        -------         -----------     
Dolby Digital Audio             English         192 kbps        2.0 / 48 kHz / 192 kbps / DN -4dB

FILES:

Name            Time In         Length          Size            Total Bitrate   
----            -------         ------          ----            -------------   
00018.M2TS      0:00:00.000     0:02:32.026     600 834 048     31 617          
00019.M2TS      0:02:32.026     0:02:12.924     525 490 176     31 626          
00020.M2TS      0:04:44.951     0:01:50.568     436 905 984     31 612          
00021.M2TS      0:06:35.520     0:01:59.452     454 010 880     30 406          
00022.M2TS      0:08:34.972     0:02:19.180     548 444 160     31 524          
00023.M2TS      0:10:54.153     0:01:34.969     375 183 360     31 604          

CHAPTERS:

Number          Time In         Length          Avg Video Rate  Max 1-Sec Rate  Max 1-Sec Time  Max 5-Sec Rate  Max 5-Sec Time  Max 10Sec Rate  Max 10Sec Time  Avg Frame Size  Max Frame Size  Max Frame Time  
------          -------         ------          --------------  --------------  --------------  --------------  --------------  --------------  --------------  --------------  --------------  --------------  
1               0:00:00.000     0:02:32.026     30 001 kbps     62 812 kbps     00:00:40.915    40 620 kbps     00:01:33.927    37 283 kbps     00:01:44.896    156 367 bytes   975 897 bytes   00:00:17.642    
2               0:02:32.026     0:02:12.924     30 009 kbps     59 124 kbps     00:03:36.382    40 494 kbps     00:02:54.465    37 750 kbps     00:03:42.096    156 454 bytes   820 165 bytes   00:03:09.647    
3               0:04:44.951     0:01:50.568     29 994 kbps     52 506 kbps     00:05:32.832    40 360 kbps     00:05:06.472    37 768 kbps     00:05:32.331    156 377 bytes   921 263 bytes   00:05:35.543    
4               0:06:35.520     0:01:59.452     28 839 kbps     63 262 kbps     00:06:53.329    40 658 kbps     00:07:08.719    37 817 kbps     00:07:19.021    150 353 bytes   982 671 bytes   00:06:57.250    
5               0:08:34.972     0:02:19.180     29 911 kbps     48 842 kbps     00:09:20.184    38 712 kbps     00:10:30.671    37 424 kbps     00:10:30.546    155 941 bytes   727 334 bytes   00:09:09.548    
6               0:10:54.153     0:01:34.969     29 987 kbps     63 389 kbps     00:12:05.850    40 676 kbps     00:11:38.364    37 133 kbps     00:11:33.359    156 408 bytes   686 543 bytes   00:11:52.586    

STREAM DIAGNOSTICS:

File            PID             Type            Codec           Language                Seconds                 Bitrate                 Bytes           Packets         
----            ---             ----            -----           --------                --------------          --------------          -------------   -----           
00018.M2TS      4113 (0x1011)   0x1B            AVC                                     151,943                 30 017                  570 112 397     3 100 479       
00018.M2TS      4352 (0x1100)   0x81            AC3             eng (English)           151,943                 192                     3 648 000       23 750          
00019.M2TS      4113 (0x1011)   0x1B            AVC                                     132,758                 30 047                  498 619 941     2 711 702       
00019.M2TS      4352 (0x1100)   0x81            AC3             eng (English)           132,758                 192                     3 189 504       20 765          
00020.M2TS      4113 (0x1011)   0x1B            AVC                                     110,485                 30 017                  414 554 812     2 254 550       
00020.M2TS      4352 (0x1100)   0x81            AC3             eng (English)           110,485                 192                     2 652 672       17 270          
00021.M2TS      4113 (0x1011)   0x1B            AVC                                     119,328                 28 869                  430 609 738     2 341 944       
00021.M2TS      4352 (0x1100)   0x81            AC3             eng (English)           119,328                 192                     2 866 176       18 660          
00022.M2TS      4113 (0x1011)   0x1B            AVC                                     139,056                 29 938                  520 376 735     2 830 057       
00022.M2TS      4352 (0x1100)   0x81            AC3             eng (English)           139,056                 192                     3 340 032       21 745          
00023.M2TS      4113 (0x1011)   0x1B            AVC                                     94,845                  30 027                  355 986 396     1 936 030       
00023.M2TS      4352 (0x1100)   0x81            AC3             eng (English)           94,845                  192                     2 278 656       14 835          

<–– END FORUMS PASTE ––>

QUICK SUMMARY:

Disc Title: SKELETONTWINS_HDACCESS
Disc Size: 38 423 649 253 bytes
Protection: AACS
BD-Java: Yes
Playlist: 00300.MPLS
Size: 2 940 868 608 bytes
Length: 0:12:29.123
Total Bitrate: 31,41 Mbps
Video: MPEG-4 AVC Video / 29798 kbps / 1080p / 23,976 fps / 16:9 / High Profile 4.1
Audio: English / Dolby Digital Audio / 2.0 / 48 kHz / 192 kbps / DN -4dB


********************
PLAYLIST: 00310.MPLS
********************

<–- BEGIN FORUMS PASTE –->
                                                                                                                Total   Video                                             
Title                                                           Codec   Length  Movie Size      Disc Size       Bitrate Bitrate Main Audio Track                          Secondary Audio Track
-----                                                           ------  ------- --------------  --------------  ------- ------- ------------------                        ---------------------
00310.MPLS                                                      AVC     0:02:32 600 834 048     38 423 649 253  31,62   30,00   DD AC3 2.0 192Kbps                        


DISC INFO:

Disc Title:     SKELETONTWINS_HDACCESS
Disc Size:      38 423 649 253 bytes
Protection:     AACS
BD-Java:        Yes
BDInfo:         0.5.8

PLAYLIST REPORT:

Name:                   00310.MPLS
Length:                 0:02:32.026 (h:m:s.ms)
Size:                   600 834 048 bytes
Total Bitrate:          31,62 Mbps

VIDEO:

Codec                   Bitrate             Description     
-----                   -------             -----------     
MPEG-4 AVC Video        30001 kbps          1080p / 23,976 fps / 16:9 / High Profile 4.1

AUDIO:

Codec                           Language        Bitrate         Description     
-----                           --------        -------         -----------     
Dolby Digital Audio             English         192 kbps        2.0 / 48 kHz / 192 kbps / DN -4dB

FILES:

Name            Time In         Length          Size            Total Bitrate   
----            -------         ------          ----            -------------   
00018.M2TS      0:00:00.000     0:02:32.026     600 834 048     31 617          

CHAPTERS:

Number          Time In         Length          Avg Video Rate  Max 1-Sec Rate  Max 1-Sec Time  Max 5-Sec Rate  Max 5-Sec Time  Max 10Sec Rate  Max 10Sec Time  Avg Frame Size  Max Frame Size  Max Frame Time  
------          -------         ------          --------------  --------------  --------------  --------------  --------------  --------------  --------------  --------------  --------------  --------------  
1               0:00:00.000     0:02:32.026     30 001 kbps     62 812 kbps     00:00:40.915    40 620 kbps     00:01:33.927    37 283 kbps     00:01:44.896    156 409 bytes   975 897 bytes   00:00:17.642    

STREAM DIAGNOSTICS:

File            PID             Type            Codec           Language                Seconds                 Bitrate                 Bytes           Packets         
----            ---             ----            -----           --------                --------------          --------------          -------------   -----           
00018.M2TS      4113 (0x1011)   0x1B            AVC                                     151,943                 30 017                  570 112 397     3 100 479       
00018.M2TS      4352 (0x1100)   0x81            AC3             eng (English)           151,943                 192                     3 648 000       23 750          

<–– END FORUMS PASTE ––>

QUICK SUMMARY:

Disc Title: SKELETONTWINS_HDACCESS
Disc Size: 38 423 649 253 bytes
Protection: AACS
BD-Java: Yes
Playlist: 00310.MPLS
Size: 600 834 048 bytes
Length: 0:02:32.026
Total Bitrate: 31,62 Mbps
Video: MPEG-4 AVC Video / 30001 kbps / 1080p / 23,976 fps / 16:9 / High Profile 4.1
Audio: English / Dolby Digital Audio / 2.0 / 48 kHz / 192 kbps / DN -4dB


********************
PLAYLIST: 00314.MPLS
********************

<–- BEGIN FORUMS PASTE –->
                                                                                                                Total   Video                                             
Title                                                           Codec   Length  Movie Size      Disc Size       Bitrate Bitrate Main Audio Track                          Secondary Audio Track
-----                                                           ------  ------- --------------  --------------  ------- ------- ------------------                        ---------------------
00314.MPLS                                                      AVC     0:02:19 548 444 160     38 423 649 253  31,52   29,91   DD AC3 2.0 192Kbps                        


DISC INFO:

Disc Title:     SKELETONTWINS_HDACCESS
Disc Size:      38 423 649 253 bytes
Protection:     AACS
BD-Java:        Yes
BDInfo:         0.5.8

PLAYLIST REPORT:

Name:                   00314.MPLS
Length:                 0:02:19.180 (h:m:s.ms)
Size:                   548 444 160 bytes
Total Bitrate:          31,52 Mbps

VIDEO:

Codec                   Bitrate             Description     
-----                   -------             -----------     
MPEG-4 AVC Video        29911 kbps          1080p / 23,976 fps / 16:9 / High Profile 4.1

AUDIO:

Codec                           Language        Bitrate         Description     
-----                           --------        -------         -----------     
Dolby Digital Audio             English         192 kbps        2.0 / 48 kHz / 192 kbps / DN -4dB

FILES:

Name            Time In         Length          Size            Total Bitrate   
----            -------         ------          ----            -------------   
00022.M2TS      0:00:00.000     0:02:19.180     548 444 160     31 524          

CHAPTERS:

Number          Time In         Length          Avg Video Rate  Max 1-Sec Rate  Max 1-Sec Time  Max 5-Sec Rate  Max 5-Sec Time  Max 10Sec Rate  Max 10Sec Time  Avg Frame Size  Max Frame Size  Max Frame Time  
------          -------         ------          --------------  --------------  --------------  --------------  --------------  --------------  --------------  --------------  --------------  --------------  
1               0:00:00.000     0:02:19.180     29 911 kbps     48 842 kbps     00:00:45.211    38 712 kbps     00:01:55.698    37 424 kbps     00:01:55.573    155 941 bytes   727 334 bytes   00:00:34.576    

STREAM DIAGNOSTICS:

File            PID             Type            Codec           Language                Seconds                 Bitrate                 Bytes           Packets         
----            ---             ----            -----           --------                --------------          --------------          -------------   -----           
00022.M2TS      4113 (0x1011)   0x1B            AVC                                     139,056                 29 938                  520 376 735     2 830 057       
00022.M2TS      4352 (0x1100)   0x81            AC3             eng (English)           139,056                 192                     3 340 032       21 745          

<–– END FORUMS PASTE ––>

QUICK SUMMARY:

Disc Title: SKELETONTWINS_HDACCESS
Disc Size: 38 423 649 253 bytes
Protection: AACS
BD-Java: Yes
Playlist: 00314.MPLS
Size: 548 444 160 bytes
Length: 0:02:19.180
Total Bitrate: 31,52 Mbps
Video: MPEG-4 AVC Video / 29911 kbps / 1080p / 23,976 fps / 16:9 / High Profile 4.1
Audio: English / Dolby Digital Audio / 2.0 / 48 kHz / 192 kbps / DN -4dB


********************
PLAYLIST: 00311.MPLS
********************

<–- BEGIN FORUMS PASTE –->
                                                                                                                Total   Video                                             
Title                                                           Codec   Length  Movie Size      Disc Size       Bitrate Bitrate Main Audio Track                          Secondary Audio Track
-----                                                           ------  ------- --------------  --------------  ------- ------- ------------------                        ---------------------
00311.MPLS                                                      AVC     0:02:12 525 490 176     38 423 649 253  31,63   30,01   DD AC3 2.0 192Kbps                        


DISC INFO:

Disc Title:     SKELETONTWINS_HDACCESS
Disc Size:      38 423 649 253 bytes
Protection:     AACS
BD-Java:        Yes
BDInfo:         0.5.8

PLAYLIST REPORT:

Name:                   00311.MPLS
Length:                 0:02:12.924 (h:m:s.ms)
Size:                   525 490 176 bytes
Total Bitrate:          31,63 Mbps

VIDEO:

Codec                   Bitrate             Description     
-----                   -------             -----------     
MPEG-4 AVC Video        30009 kbps          1080p / 23,976 fps / 16:9 / High Profile 4.1

AUDIO:

Codec                           Language        Bitrate         Description     
-----                           --------        -------         -----------     
Dolby Digital Audio             English         192 kbps        2.0 / 48 kHz / 192 kbps / DN -4dB

FILES:

Name            Time In         Length          Size            Total Bitrate   
----            -------         ------          ----            -------------   
00019.M2TS      0:00:00.000     0:02:12.924     525 490 176     31 626          

CHAPTERS:

Number          Time In         Length          Avg Video Rate  Max 1-Sec Rate  Max 1-Sec Time  Max 5-Sec Rate  Max 5-Sec Time  Max 10Sec Rate  Max 10Sec Time  Avg Frame Size  Max Frame Size  Max Frame Time  
------          -------         ------          --------------  --------------  --------------  --------------  --------------  --------------  --------------  --------------  --------------  --------------  
1               0:00:00.000     0:02:12.924     30 009 kbps     59 124 kbps     00:01:04.355    40 494 kbps     00:00:22.439    37 750 kbps     00:01:10.070    156 454 bytes   820 165 bytes   00:00:37.620    

STREAM DIAGNOSTICS:

File            PID             Type            Codec           Language                Seconds                 Bitrate                 Bytes           Packets         
----            ---             ----            -----           --------                --------------          --------------          -------------   -----           
00019.M2TS      4113 (0x1011)   0x1B            AVC                                     132,758                 30 047                  498 619 941     2 711 702       
00019.M2TS      4352 (0x1100)   0x81            AC3             eng (English)           132,758                 192                     3 189 504       20 765          

<–– END FORUMS PASTE ––>

QUICK SUMMARY:

Disc Title: SKELETONTWINS_HDACCESS
Disc Size: 38 423 649 253 bytes
Protection: AACS
BD-Java: Yes
Playlist: 00311.MPLS
Size: 525 490 176 bytes
Length: 0:02:12.924
Total Bitrate: 31,63 Mbps
Video: MPEG-4 AVC Video / 30009 kbps / 1080p / 23,976 fps / 16:9 / High Profile 4.1
Audio: English / Dolby Digital Audio / 2.0 / 48 kHz / 192 kbps / DN -4dB


********************
PLAYLIST: 00313.MPLS
********************

<–- BEGIN FORUMS PASTE –->
                                                                                                                Total   Video                                             
Title                                                           Codec   Length  Movie Size      Disc Size       Bitrate Bitrate Main Audio Track                          Secondary Audio Track
-----                                                           ------  ------- --------------  --------------  ------- ------- ------------------                        ---------------------
00313.MPLS                                                      AVC     0:01:59 454 010 880     38 423 649 253  30,41   28,84   DD AC3 2.0 192Kbps                        


DISC INFO:

Disc Title:     SKELETONTWINS_HDACCESS
Disc Size:      38 423 649 253 bytes
Protection:     AACS
BD-Java:        Yes
BDInfo:         0.5.8

PLAYLIST REPORT:

Name:                   00313.MPLS
Length:                 0:01:59.452 (h:m:s.ms)
Size:                   454 010 880 bytes
Total Bitrate:          30,41 Mbps

VIDEO:

Codec                   Bitrate             Description     
-----                   -------             -----------     
MPEG-4 AVC Video        28839 kbps          1080p / 23,976 fps / 16:9 / High Profile 4.1

AUDIO:

Codec                           Language        Bitrate         Description     
-----                           --------        -------         -----------     
Dolby Digital Audio             English         192 kbps        2.0 / 48 kHz / 192 kbps / DN -4dB

FILES:

Name            Time In         Length          Size            Total Bitrate   
----            -------         ------          ----            -------------   
00021.M2TS      0:00:00.000     0:01:59.452     454 010 880     30 406          

CHAPTERS:

Number          Time In         Length          Avg Video Rate  Max 1-Sec Rate  Max 1-Sec Time  Max 5-Sec Rate  Max 5-Sec Time  Max 10Sec Rate  Max 10Sec Time  Avg Frame Size  Max Frame Size  Max Frame Time  
------          -------         ------          --------------  --------------  --------------  --------------  --------------  --------------  --------------  --------------  --------------  --------------  
1               0:00:00.000     0:01:59.452     28 839 kbps     63 262 kbps     00:00:17.809    40 658 kbps     00:00:33.199    37 817 kbps     00:00:43.501    150 353 bytes   982 671 bytes   00:00:21.730    

STREAM DIAGNOSTICS:

File            PID             Type            Codec           Language                Seconds                 Bitrate                 Bytes           Packets         
----            ---             ----            -----           --------                --------------          --------------          -------------   -----           
00021.M2TS      4113 (0x1011)   0x1B            AVC                                     119,328                 28 869                  430 609 738     2 341 944       
00021.M2TS      4352 (0x1100)   0x81            AC3             eng (English)           119,328                 192                     2 866 176       18 660          

<–– END FORUMS PASTE ––>

QUICK SUMMARY:

Disc Title: SKELETONTWINS_HDACCESS
Disc Size: 38 423 649 253 bytes
Protection: AACS
BD-Java: Yes
Playlist: 00313.MPLS
Size: 454 010 880 bytes
Length: 0:01:59.452
Total Bitrate: 30,41 Mbps
Video: MPEG-4 AVC Video / 28839 kbps / 1080p / 23,976 fps / 16:9 / High Profile 4.1
Audio: English / Dolby Digital Audio / 2.0 / 48 kHz / 192 kbps / DN -4dB


********************
PLAYLIST: 00312.MPLS
********************

<–- BEGIN FORUMS PASTE –->
                                                                                                                Total   Video                                             
Title                                                           Codec   Length  Movie Size      Disc Size       Bitrate Bitrate Main Audio Track                          Secondary Audio Track
-----                                                           ------  ------- --------------  --------------  ------- ------- ------------------                        ---------------------
00312.MPLS                                                      AVC     0:01:50 436 905 984     38 423 649 253  31,61   29,99   DD AC3 2.0 192Kbps                        


DISC INFO:

Disc Title:     SKELETONTWINS_HDACCESS
Disc Size:      38 423 649 253 bytes
Protection:     AACS
BD-Java:        Yes
BDInfo:         0.5.8

PLAYLIST REPORT:

Name:                   00312.MPLS
Length:                 0:01:50.568 (h:m:s.ms)
Size:                   436 905 984 bytes
Total Bitrate:          31,61 Mbps

VIDEO:

Codec                   Bitrate             Description     
-----                   -------             -----------     
MPEG-4 AVC Video        29994 kbps          1080p / 23,976 fps / 16:9 / High Profile 4.1

AUDIO:

Codec                           Language        Bitrate         Description     
-----                           --------        -------         -----------     
Dolby Digital Audio             English         192 kbps        2.0 / 48 kHz / 192 kbps / DN -4dB

FILES:

Name            Time In         Length          Size            Total Bitrate   
----            -------         ------          ----            -------------   
00020.M2TS      0:00:00.000     0:01:50.568     436 905 984     31 612          

CHAPTERS:

Number          Time In         Length          Avg Video Rate  Max 1-Sec Rate  Max 1-Sec Time  Max 5-Sec Rate  Max 5-Sec Time  Max 10Sec Rate  Max 10Sec Time  Avg Frame Size  Max Frame Size  Max Frame Time  
------          -------         ------          --------------  --------------  --------------  --------------  --------------  --------------  --------------  --------------  --------------  --------------  
1               0:00:00.000     0:01:50.568     29 994 kbps     52 506 kbps     00:00:47.881    40 360 kbps     00:00:21.521    37 768 kbps     00:00:47.380    156 377 bytes   921 263 bytes   00:00:50.592    

STREAM DIAGNOSTICS:

File            PID             Type            Codec           Language                Seconds                 Bitrate                 Bytes           Packets         
----            ---             ----            -----           --------                --------------          --------------          -------------   -----           
00020.M2TS      4113 (0x1011)   0x1B            AVC                                     110,485                 30 017                  414 554 812     2 254 550       
00020.M2TS      4352 (0x1100)   0x81            AC3             eng (English)           110,485                 192                     2 652 672       17 270          

<–– END FORUMS PASTE ––>

QUICK SUMMARY:

Disc Title: SKELETONTWINS_HDACCESS
Disc Size: 38 423 649 253 bytes
Protection: AACS
BD-Java: Yes
Playlist: 00312.MPLS
Size: 436 905 984 bytes
Length: 0:01:50.568
Total Bitrate: 31,61 Mbps
Video: MPEG-4 AVC Video / 29994 kbps / 1080p / 23,976 fps / 16:9 / High Profile 4.1
Audio: English / Dolby Digital Audio / 2.0 / 48 kHz / 192 kbps / DN -4dB


********************
PLAYLIST: 00315.MPLS
********************

<–- BEGIN FORUMS PASTE –->
                                                                                                                Total   Video                                             
Title                                                           Codec   Length  Movie Size      Disc Size       Bitrate Bitrate Main Audio Track                          Secondary Audio Track
-----                                                           ------  ------- --------------  --------------  ------- ------- ------------------                        ---------------------
00315.MPLS                                                      AVC     0:01:34 375 183 360     38 423 649 253  31,60   29,99   DD AC3 2.0 192Kbps                        


DISC INFO:

Disc Title:     SKELETONTWINS_HDACCESS
Disc Size:      38 423 649 253 bytes
Protection:     AACS
BD-Java:        Yes
BDInfo:         0.5.8

PLAYLIST REPORT:

Name:                   00315.MPLS
Length:                 0:01:34.969 (h:m:s.ms)
Size:                   375 183 360 bytes
Total Bitrate:          31,60 Mbps

VIDEO:

Codec                   Bitrate             Description     
-----                   -------             -----------     
MPEG-4 AVC Video        29987 kbps          1080p / 23,976 fps / 16:9 / High Profile 4.1

AUDIO:

Codec                           Language        Bitrate         Description     
-----                           --------        -------         -----------     
Dolby Digital Audio             English         192 kbps        2.0 / 48 kHz / 192 kbps / DN -4dB

FILES:

Name            Time In         Length          Size            Total Bitrate   
----            -------         ------          ----            -------------   
00023.M2TS      0:00:00.000     0:01:34.969     375 183 360     31 604          

CHAPTERS:

Number          Time In         Length          Avg Video Rate  Max 1-Sec Rate  Max 1-Sec Time  Max 5-Sec Rate  Max 5-Sec Time  Max 10Sec Rate  Max 10Sec Time  Avg Frame Size  Max Frame Size  Max Frame Time  
------          -------         ------          --------------  --------------  --------------  --------------  --------------  --------------  --------------  --------------  --------------  --------------  
1               0:00:00.000     0:01:34.969     29 987 kbps     63 389 kbps     00:01:11.696    40 676 kbps     00:00:44.210    37 133 kbps     00:00:39.205    156 340 bytes   686 543 bytes   00:00:58.433    

STREAM DIAGNOSTICS:

File            PID             Type            Codec           Language                Seconds                 Bitrate                 Bytes           Packets         
----            ---             ----            -----           --------                --------------          --------------          -------------   -----           
00023.M2TS      4113 (0x1011)   0x1B            AVC                                     94,845                  30 027                  355 986 396     1 936 030       
00023.M2TS      4352 (0x1100)   0x81            AC3             eng (English)           94,845                  192                     2 278 656       14 835          

<–– END FORUMS PASTE ––>

QUICK SUMMARY:

Disc Title: SKELETONTWINS_HDACCESS
Disc Size: 38 423 649 253 bytes
Protection: AACS
BD-Java: Yes
Playlist: 00315.MPLS
Size: 375 183 360 bytes
Length: 0:01:34.969
Total Bitrate: 31,60 Mbps
Video: MPEG-4 AVC Video / 29987 kbps / 1080p / 23,976 fps / 16:9 / High Profile 4.1
Audio: English / Dolby Digital Audio / 2.0 / 48 kHz / 192 kbps / DN -4dB


********************
PLAYLIST: 00303.MPLS
********************

<–- BEGIN FORUMS PASTE –->
                                                                                                                Total   Video                                             
Title                                                           Codec   Length  Movie Size      Disc Size       Bitrate Bitrate Main Audio Track                          Secondary Audio Track
-----                                                           ------  ------- --------------  --------------  ------- ------- ------------------                        ---------------------
00303.MPLS                                                      AVC     0:03:36 855 631 872     38 423 649 253  31,62   30,00   DD AC3 2.0 192Kbps                        


DISC INFO:

Disc Title:     SKELETONTWINS_HDACCESS
Disc Size:      38 423 649 253 bytes
Protection:     AACS
BD-Java:        Yes
BDInfo:         0.5.8

PLAYLIST REPORT:

Name:                   00303.MPLS
Length:                 0:03:36.466 (h:m:s.ms)
Size:                   855 631 872 bytes
Total Bitrate:          31,62 Mbps

VIDEO:

Codec                   Bitrate             Description     
-----                   -------             -----------     
MPEG-4 AVC Video        30004 kbps          1080p / 23,976 fps / 16:9 / High Profile 4.1

AUDIO:

Codec                           Language        Bitrate         Description     
-----                           --------        -------         -----------     
Dolby Digital Audio             English         192 kbps        2.0 / 48 kHz / 192 kbps / DN -4dB

FILES:

Name            Time In         Length          Size            Total Bitrate   
----            -------         ------          ----            -------------   
00012.M2TS      0:00:00.000     0:03:36.466     855 631 872     31 622          

CHAPTERS:

Number          Time In         Length          Avg Video Rate  Max 1-Sec Rate  Max 1-Sec Time  Max 5-Sec Rate  Max 5-Sec Time  Max 10Sec Rate  Max 10Sec Time  Avg Frame Size  Max Frame Size  Max Frame Time  
------          -------         ------          --------------  --------------  --------------  --------------  --------------  --------------  --------------  --------------  --------------  --------------  
1               0:00:00.000     0:03:36.466     30 004 kbps     48 163 kbps     00:01:44.020    40 022 kbps     00:01:44.104    37 837 kbps     00:01:42.018    156 429 bytes   679 870 bytes   00:01:46.064    

STREAM DIAGNOSTICS:

File            PID             Type            Codec           Language                Seconds                 Bitrate                 Bytes           Packets         
----            ---             ----            -----           --------                --------------          --------------          -------------   -----           
00012.M2TS      4113 (0x1011)   0x1B            AVC                                     216,383                 30 016                  811 865 530     4 415 317       
00012.M2TS      4352 (0x1100)   0x81            AC3             eng (English)           216,383                 192                     5 194 752       33 820          

<–– END FORUMS PASTE ––>

QUICK SUMMARY:

Disc Title: SKELETONTWINS_HDACCESS
Disc Size: 38 423 649 253 bytes
Protection: AACS
BD-Java: Yes
Playlist: 00303.MPLS
Size: 855 631 872 bytes
Length: 0:03:36.466
Total Bitrate: 31,62 Mbps
Video: MPEG-4 AVC Video / 30004 kbps / 1080p / 23,976 fps / 16:9 / High Profile 4.1
Audio: English / Dolby Digital Audio / 2.0 / 48 kHz / 192 kbps / DN -4dB


********************
PLAYLIST: 00307.MPLS
********************

<–- BEGIN FORUMS PASTE –->
                                                                                                                Total   Video                                             
Title                                                           Codec   Length  Movie Size      Disc Size       Bitrate Bitrate Main Audio Track                          Secondary Audio Track
-----                                                           ------  ------- --------------  --------------  ------- ------- ------------------                        ---------------------
00307.MPLS                                                      AVC     0:03:14 832 510 464     38 423 649 253  34,22   32,49   DD AC3 2.0 192Kbps                        


DISC INFO:

Disc Title:     SKELETONTWINS_HDACCESS
Disc Size:      38 423 649 253 bytes
Protection:     AACS
BD-Java:        Yes
BDInfo:         0.5.8

PLAYLIST REPORT:

Name:                   00307.MPLS
Length:                 0:03:14.652 (h:m:s.ms)
Size:                   832 510 464 bytes
Total Bitrate:          34,22 Mbps

VIDEO:

Codec                   Bitrate             Description     
-----                   -------             -----------     
MPEG-4 AVC Video        32489 kbps          1080p / 23,976 fps / 16:9 / High Profile 4.1

AUDIO:

Codec                           Language        Bitrate         Description     
-----                           --------        -------         -----------     
Dolby Digital Audio             English         192 kbps        2.0 / 48 kHz / 192 kbps / DN -4dB

FILES:

Name            Time In         Length          Size            Total Bitrate   
----            -------         ------          ----            -------------   
00024.M2TS      0:00:00.000     0:03:14.652     832 510 464     34 215          

CHAPTERS:

Number          Time In         Length          Avg Video Rate  Max 1-Sec Rate  Max 1-Sec Time  Max 5-Sec Rate  Max 5-Sec Time  Max 10Sec Rate  Max 10Sec Time  Avg Frame Size  Max Frame Size  Max Frame Time  
------          -------         ------          --------------  --------------  --------------  --------------  --------------  --------------  --------------  --------------  --------------  --------------  
1               0:00:00.000     0:03:14.652     32 489 kbps     45 659 kbps     00:01:26.503    38 606 kbps     00:01:35.637    37 669 kbps     00:01:00.060    169 385 bytes   640 478 bytes   00:01:45.647    

STREAM DIAGNOSTICS:

File            PID             Type            Codec           Language                Seconds                 Bitrate                 Bytes           Packets         
----            ---             ----            -----           --------                --------------          --------------          -------------   -----           
00024.M2TS      4113 (0x1011)   0x1B            AVC                                     305,347                 30 011                  1 145 465 648   6 229 551       
00024.M2TS      4352 (0x1100)   0x81            AC3             eng (English)           305,347                 192                     7 330 560       47 725          

<–– END FORUMS PASTE ––>

QUICK SUMMARY:

Disc Title: SKELETONTWINS_HDACCESS
Disc Size: 38 423 649 253 bytes
Protection: AACS
BD-Java: Yes
Playlist: 00307.MPLS
Size: 832 510 464 bytes
Length: 0:03:14.652
Total Bitrate: 34,22 Mbps
Video: MPEG-4 AVC Video / 32489 kbps / 1080p / 23,976 fps / 16:9 / High Profile 4.1
Audio: English / Dolby Digital Audio / 2.0 / 48 kHz / 192 kbps / DN -4dB


********************
PLAYLIST: 00305.MPLS
********************

<–- BEGIN FORUMS PASTE –->
                                                                                                                Total   Video                                             
Title                                                           Codec   Length  Movie Size      Disc Size       Bitrate Bitrate Main Audio Track                          Secondary Audio Track
-----                                                           ------  ------- --------------  --------------  ------- ------- ------------------                        ---------------------
00305.MPLS                                                      AVC     0:00:55 196 160 256     38 423 649 253  28,40   26,89   DD AC3 2.0 192Kbps                        


DISC INFO:

Disc Title:     SKELETONTWINS_HDACCESS
Disc Size:      38 423 649 253 bytes
Protection:     AACS
BD-Java:        Yes
BDInfo:         0.5.8

PLAYLIST REPORT:

Name:                   00305.MPLS
Length:                 0:00:55.263 (h:m:s.ms)
Size:                   196 160 256 bytes
Total Bitrate:          28,40 Mbps

VIDEO:

Codec                   Bitrate             Description     
-----                   -------             -----------     
MPEG-4 AVC Video        26894 kbps          1080p / 23,976 fps / 16:9 / High Profile 4.1

AUDIO:

Codec                           Language        Bitrate         Description     
-----                           --------        -------         -----------     
Dolby Digital Audio             English         192 kbps        2.0 / 48 kHz / 192 kbps / DN -4dB

FILES:

Name            Time In         Length          Size            Total Bitrate   
----            -------         ------          ----            -------------   
00024.M2TS      0:00:00.000     0:00:55.263     196 160 256     28 375          

CHAPTERS:

Number          Time In         Length          Avg Video Rate  Max 1-Sec Rate  Max 1-Sec Time  Max 5-Sec Rate  Max 5-Sec Time  Max 10Sec Rate  Max 10Sec Time  Avg Frame Size  Max Frame Size  Max Frame Time  
------          -------         ------          --------------  --------------  --------------  --------------  --------------  --------------  --------------  --------------  --------------  --------------  
1               0:00:00.000     0:00:55.263     26 914 kbps     37 853 kbps     00:00:31.197    34 784 kbps     00:00:30.989    32 473 kbps     00:00:30.989    140 212 bytes   296 311 bytes   00:00:10.218    

STREAM DIAGNOSTICS:

File            PID             Type            Codec           Language                Seconds                 Bitrate                 Bytes           Packets         
----            ---             ----            -----           --------                --------------          --------------          -------------   -----           
00024.M2TS      4113 (0x1011)   0x1B            AVC                                     305,347                 30 011                  1 145 465 648   6 229 551       
00024.M2TS      4352 (0x1100)   0x81            AC3             eng (English)           305,347                 192                     7 330 560       47 725          

<–– END FORUMS PASTE ––>

QUICK SUMMARY:

Disc Title: SKELETONTWINS_HDACCESS
Disc Size: 38 423 649 253 bytes
Protection: AACS
BD-Java: Yes
Playlist: 00305.MPLS
Size: 196 160 256 bytes
Length: 0:00:55.263
Total Bitrate: 28,40 Mbps
Video: MPEG-4 AVC Video / 26894 kbps / 1080p / 23,976 fps / 16:9 / High Profile 4.1
Audio: English / Dolby Digital Audio / 2.0 / 48 kHz / 192 kbps / DN -4dB


********************
PLAYLIST: 00306.MPLS
********************

<–- BEGIN FORUMS PASTE –->
                                                                                                                Total   Video                                             
Title                                                			  		  	   		  		  	 			   		  	   		      	 			   		   	  		  	   			  	  	 			   		   	  		 		   		  	 			            Codec   Length  Movie Size      Disc Size       Bitrate Bitrate Main Audio Track                          Secondary Audio Track
-----                                                           ------  ------- --------------  --------------  ------- ------- ------------------                        ---------------------
00306.MPLS                                                      AVC     0:00:28 99 432 960      38 423 649 253  27,68   26,19   DD AC3 2.0 192Kbps                        


DISC INFO:

Disc Title:     SKELETONTWINS_HDACCESS
Disc Size:      38 423 649 253 bytes
Protection:     AACS
BD-Java:        Yes
BDInfo:         0.5.8

PLAYLIST REPORT:

Name:                   00306.MPLS
Length:                 0:00:28.737 (h:m:s.ms)
Size:                   99 432 960 bytes
Total Bitrate:          27,68 Mbps

VIDEO:

Codec                   Bitrate             Description     
-----                   -------             -----------     
MPEG-4 AVC Video        26189 kbps          1080p / 23,976 fps / 16:9 / High Profile 4.1

AUDIO:

Codec                           Language        Bitrate         Description     
-----                           --------        -------         -----------     
Dolby Digital Audio             English         192 kbps        2.0 / 48 kHz / 192 kbps / DN -4dB

FILES:

Name            Time In         Length          Size            Total Bitrate   
----            -------         ------          ----            -------------   
00024.M2TS      0:00:00.000     0:00:28.737     99 432 960      27 641          

CHAPTERS:

Number          Time In         Length          Avg Video Rate  Max 1-Sec Rate  Max 1-Sec Time  Max 5-Sec Rate  Max 5-Sec Time  Max 10Sec Rate  Max 10Sec Time  Avg Frame Size  Max Frame Size  Max Frame Time  
------          -------         ------          --------------  --------------  --------------  --------------  --------------  --------------  --------------  --------------  --------------  --------------  
1               0:00:00.000     0:00:28.737     26 227 kbps     37 793 kbps     00:00:21.938    35 402 kbps     00:00:21.771    32 625 kbps     00:00:18.518    136 537 bytes   305 421 bytes   00:00:25.316    

STREAM DIAGNOSTICS:

File            PID             Type            Codec           Language                Seconds                 Bitrate                 Bytes           Packets         
----            ---             ----            -----           --------                --------------          --------------          -------------   -----           
00024.M2TS      4113 (0x1011)   0x1B            AVC                                     305,347                 30 011                  1 145 465 648   6 229 551       
00024.M2TS      4352 (0x1100)   0x81            AC3             eng (English)           305,347                 192                     7 330 560       47 725          

<–– END FORUMS PASTE ––>

QUICK SUMMARY:

Disc Title: SKELETONTWINS_HDACCESS
Disc Size: 38 423 649 253 bytes
Protection: AACS
BD-Java: Yes
Playlist: 00306.MPLS
Size: 99 432 960 bytes
Length: 0:00:28.737
Total Bitrate: 27,68 Mbps
Video: MPEG-4 AVC Video / 26189 kbps / 1080p / 23,976 fps / 16:9 / High Profile 4.1
Audio: English / Dolby Digital Audio / 2.0 / 48 kHz / 192 kbps / DN -4dB


********************
PLAYLIST: 00304.MPLS
********************

<–- BEGIN FORUMS PASTE –->
                                                                                                                Total   Video                                             
Title                                                           Codec   Length  Movie Size      Disc Size       Bitrate Bitrate Main Audio Track                          Secondary Audio Track
-----                                                           ------  ------- --------------  --------------  ------- ------- ------------------                        ---------------------
00304.MPLS                                                      AVC     0:00:26 79 100 160      38 423 649 253  23,71   22,39   DD AC3 2.0 192Kbps                        


DISC INFO:

Disc Title:     SKELETONTWINS_HDACCESS
Disc Size:      38 423 649 253 bytes
Protection:     AACS
BD-Java:        Yes
BDInfo:         0.5.8

PLAYLIST REPORT:

Name:                   00304.MPLS
Length:                 0:00:26.693 (h:m:s.ms)
Size:                   79 100 160 bytes
Total Bitrate:          23,71 Mbps

VIDEO:

Codec                   Bitrate             Description     
-----                   -------             -----------     
MPEG-4 AVC Video        22387 kbps          1080p / 23,976 fps / 16:9 / High Profile 4.1

AUDIO:

Codec                           Language        Bitrate         Description     
-----                           --------        -------         -----------     
Dolby Digital Audio             English         192 kbps        2.0 / 48 kHz / 192 kbps / DN -4dB

FILES:

Name            Time In         Length          Size            Total Bitrate   
----            -------         ------          ----            -------------   
00024.M2TS      0:00:00.000     0:00:26.693     79 100 160      23 669          

CHAPTERS:

Number          Time In         Length          Avg Video Rate  Max 1-Sec Rate  Max 1-Sec Time  Max 5-Sec Rate  Max 5-Sec Time  Max 10Sec Rate  Max 10Sec Time  Avg Frame Size  Max Frame Size  Max Frame Time  
------          -------         ------          --------------  --------------  --------------  --------------  --------------  --------------  --------------  --------------  --------------  --------------  
1               0:00:00.000     0:00:26.693     22 422 kbps     31 381 kbps     00:00:23.064    29 126 kbps     00:00:18.977    27 830 kbps     00:00:13.972    116 713 bytes   248 920 bytes   00:00:20.645    

STREAM DIAGNOSTICS:

File            PID             Type            Codec           Language                Seconds                 Bitrate                 Bytes           Packets         
----            ---             ----            -----           --------                --------------          --------------          -------------   -----           
00024.M2TS      4113 (0x1011)   0x1B            AVC                                     305,347                 30 011                  1 145 465 648   6 229 551       
00024.M2TS      4352 (0x1100)   0x81            AC3             eng (English)           305,347                 192                     7 330 560       47 725          

<–– END FORUMS PASTE ––>

QUICK SUMMARY:

Disc Title: SKELETONTWINS_HDACCESS
Disc Size: 38 423 649 253 bytes
Protection: AACS
BD-Java: Yes
Playlist: 00304.MPLS
Size: 79 100 160 bytes
Length: 0:00:26.693
Total Bitrate: 23,71 Mbps
Video: MPEG-4 AVC Video / 22387 kbps / 1080p / 23,976 fps / 16:9 / High Profile 4.1
Audio: English / Dolby Digital Audio / 2.0 / 48 kHz / 192 kbps / DN -4dB


********************
PLAYLIST: 00302.MPLS
********************

<–- BEGIN FORUMS PASTE –->
                                                                                                                Total   Video                                             
Title                                                           Codec   Length  Movie Size      Disc Size       Bitrate Bitrate Main Audio Track                          Secondary Audio Track
-----                                                           ------  ------- --------------  --------------  ------- ------- ------------------                        ---------------------
00302.MPLS                                                      AVC     0:01:35 376 270 848     38 423 649 253  31,63   30,01   DD AC3 2.0 192Kbps                        


DISC INFO:

Disc Title:     SKELETONTWINS_HDACCESS
Disc Size:      38 423 649 253 bytes
Protection:     AACS
BD-Java:        Yes
BDInfo:         0.5.8

PLAYLIST REPORT:

Name:                   00302.MPLS
Length:                 0:01:35.178 (h:m:s.ms)
Size:                   376 270 848 bytes
Total Bitrate:          31,63 Mbps

VIDEO:

Codec                   Bitrate             Description     
-----                   -------             -----------     
MPEG-4 AVC Video        30008 kbps          1080p / 23,976 fps / 16:9 / High Profile 4.1

AUDIO:

Codec                           Language        Bitrate         Description     
-----                           --------        -------         -----------     
Dolby Digital Audio             English         192 kbps        2.0 / 48 kHz / 192 kbps / DN -4dB

FILES:

Name            Time In         Length          Size            Total Bitrate   
----            -------         ------          ----            -------------   
00011.M2TS      0:00:00.000     0:01:35.178     376 270 848     31 627          

CHAPTERS:

Number          Time In         Length          Avg Video Rate  Max 1-Sec Rate  Max 1-Sec Time  Max 5-Sec Rate  Max 5-Sec Time  Max 10Sec Rate  Max 10Sec Time  Avg Frame Size  Max Frame Size  Max Frame Time  
------          -------         ------          --------------  --------------  --------------  --------------  --------------  --------------  --------------  --------------  --------------  --------------  
1               0:00:00.000     0:01:35.178     30 008 kbps     48 199 kbps     00:00:48.757    39 938 kbps     00:00:18.977    37 307 kbps     00:00:45.837    156 450 bytes   722 211 bytes   00:00:22.105    

STREAM DIAGNOSTICS:

File            PID             Type            Codec           Language                Seconds                 Bitrate                 Bytes           Packets         
----            ---             ----            -----           --------                --------------          --------------          -------------   -----           
00011.M2TS      4113 (0x1011)   0x1B            AVC                                     95,053                  30 048                  357 018 210     1 941 649       
00011.M2TS      4352 (0x1100)   0x81            AC3             eng (English)           95,053                  192                     2 284 032       14 870          

<–– END FORUMS PASTE ––>

QUICK SUMMARY:

Disc Title: SKELETONTWINS_HDACCESS
Disc Size: 38 423 649 253 bytes
Protection: AACS
BD-Java: Yes
Playlist: 00302.MPLS
Size: 376 270 848 bytes
Length: 0:01:35.178
Total Bitrate: 31,63 Mbps
Video: MPEG-4 AVC Video / 30008 kbps / 1080p / 23,976 fps / 16:9 / High Profile 4.1
Audio: English / Dolby Digital Audio / 2.0 / 48 kHz / 192 kbps / DN -4dB


********************
PLAYLIST: 00101.MPLS
********************

<–- BEGIN FORUMS PASTE –->
                                                                                                                Total   Video                                             
Title                                                           Codec   Length  Movie Size      Disc Size       Bitrate Bitrate Main Audio Track                          Secondary Audio Track
-----                                                           ------  ------- --------------  --------------  ------- ------- ------------------                        ---------------------
00101.MPLS                                                      AVC     0:01:08 226 781 184     38 423 649 253  26,39   24,99   DD AC3 2.0 192Kbps                        


DISC INFO:

Disc Title:     SKELETONTWINS_HDACCESS
Disc Size:      38 423 649 253 bytes
Protection:     AACS
BD-Java:        Yes
BDInfo:         0.5.8

PLAYLIST REPORT:

Name:                   00101.MPLS
Length:                 0:01:08.735 (h:m:s.ms)
Size:                   226 781 184 bytes
Total Bitrate:          26,39 Mbps

VIDEO:

Codec                   Bitrate             Description     
-----                   -------             -----------     
MPEG-4 AVC Video        24995 kbps          1080p / 23,976 fps / 16:9 / Main Profile 4.1

AUDIO:

Codec                           Language        Bitrate         Description     
-----                           --------        -------         -----------     
Dolby Digital Audio             English         192 kbps        2.0 / 48 kHz / 192 kbps / DN -4dB

FILES:

Name            Time In         Length          Size            Total Bitrate   
----            -------         ------          ----            -------------   
00025.M2TS      0:00:00.000     0:01:08.735     226 781 184     26 395          

CHAPTERS:

Number          Time In         Length          Avg Video Rate  Max 1-Sec Rate  Max 1-Sec Time  Max 5-Sec Rate  Max 5-Sec Time  Max 10Sec Rate  Max 10Sec Time  Avg Frame Size  Max Frame Size  Max Frame Time  
------          -------         ------          --------------  --------------  --------------  --------------  --------------  --------------  --------------  --------------  --------------  --------------  
1               0:00:00.000     0:01:08.735     24 995 kbps     33 399 kbps     00:00:35.035    28 820 kbps     00:00:21.271    27 691 kbps     00:00:21.521    130 311 bytes   828 996 bytes   00:00:45.795    

STREAM DIAGNOSTICS:

File            PID             Type            Codec           Language                Seconds                 Bitrate                 Bytes           Packets         
----            ---             ----            -----           --------                --------------          --------------          -------------   -----           
00025.M2TS      4113 (0x1011)   0x1B            AVC                                     68,569                  25 056                  214 753 071     1 168 102       
00025.M2TS      4352 (0x1100)   0x81            AC3             eng (English)           68,569                  192                     1 649 664       10 740          

<–– END FORUMS PASTE ––>

QUICK SUMMARY:

Disc Title: SKELETONTWINS_HDACCESS
Disc Size: 38 423 649 253 bytes
Protection: AACS
BD-Java: Yes
Playlist: 00101.MPLS
Size: 226 781 184 bytes
Length: 0:01:08.735
Total Bitrate: 26,39 Mbps
Video: MPEG-4 AVC Video / 24995 kbps / 1080p / 23,976 fps / 16:9 / Main Profile 4.1
Audio: English / Dolby Digital Audio / 2.0 / 48 kHz / 192 kbps / DN -4dB


********************
PLAYLIST: 00201.MPLS
********************

<–- BEGIN FORUMS PASTE –->
                                                                                                                Total   Video                                             
Title                                                           Codec   Length  Movie Size      Disc Size       Bitrate Bitrate Main Audio Track                          Secondary Audio Track
-----                                                           ------  ------- --------------  --------------  ------- ------- ------------------                        ---------------------
00201.MPLS                                                      AVC     0:00:41 93 173 760      38 423 649 253  17,87   16,60   DD AC3 5.1 448Kbps                        


DISC INFO:

Disc Title:     SKELETONTWINS_HDACCESS
Disc Size:      38 423 649 253 bytes
Protection:     AACS
BD-Java:        Yes
BDInfo:         0.5.8

PLAYLIST REPORT:

Name:                   00201.MPLS
Length:                 0:00:41.708 (h:m:s.ms)
Size:                   93 173 760 bytes
Total Bitrate:          17,87 Mbps

VIDEO:

Codec                   Bitrate             Description     
-----                   -------             -----------     
MPEG-4 AVC Video        16596 kbps          1080p / 23,976 fps / 16:9 / High Profile 4.1

AUDIO:

Codec                           Language        Bitrate         Description     
-----                           --------        -------         -----------     
Dolby Digital Audio             English         448 kbps        5.1 / 48 kHz / 448 kbps / DN -4dB

FILES:

Name            Time In         Length          Size            Total Bitrate   
----            -------         ------          ----            -------------   
00008.M2TS      0:00:00.000     0:00:19.686     22 720 512      9 233           
00009.M2TS      0:00:19.686     0:00:22.021     70 453 248      25 594          

CHAPTERS:

Number          Time In         Length          Avg Video Rate  Max 1-Sec Rate  Max 1-Sec Time  Max 5-Sec Rate  Max 5-Sec Time  Max 10Sec Rate  Max 10Sec Time  Avg Frame Size  Max Frame Size  Max Frame Time  
------          -------         ------          --------------  --------------  --------------  --------------  --------------  --------------  --------------  --------------  --------------  --------------  
1               0:00:00.000     0:00:19.686     8 318 kbps      15 344 kbps     00:00:00.834    11 243 kbps     00:00:00.834    9 748 kbps      00:00:00.834    43 273 bytes    340 793 bytes   00:00:03.003    
2               0:00:19.686     0:00:22.021     23 997 kbps     36 763 kbps     00:00:28.278    31 714 kbps     00:00:24.399    28 951 kbps     00:00:22.313    125 346 bytes   309 903 bytes   00:00:28.695    

STREAM DIAGNOSTICS:

File            PID             Type            Codec           Language                Seconds                 Bitrate                 Bytes           Packets         
----            ---             ----            -----           --------                --------------          --------------          -------------   -----           
00008.M2TS      4113 (0x1011)   0x1B            AVC                                     19,520                  8 388                   20 467 078      111 475         
00008.M2TS      4352 (0x1100)   0x81            AC3             eng (English)           19,520                  452                     1 103 872       6 160           
00009.M2TS      4113 (0x1011)   0x1B            AVC                                     21,855                  24 180                  66 058 438      359 294         
00009.M2TS      4352 (0x1100)   0x81            AC3             eng (English)           21,855                  452                     1 234 688       6 890           

<–– END FORUMS PASTE ––>

QUICK SUMMARY:

Disc Title: SKELETONTWINS_HDACCESS
Disc Size: 38 423 649 253 bytes
Protection: AACS
BD-Java: Yes
Playlist: 00201.MPLS
Size: 93 173 760 bytes
Length: 0:00:41.708
Total Bitrate: 17,87 Mbps
Video: MPEG-4 AVC Video / 16596 kbps / 1080p / 23,976 fps / 16:9 / High Profile 4.1
Audio: English / Dolby Digital Audio / 5.1 / 48 kHz / 448 kbps / DN -4dB


********************
PLAYLIST: 00207.MPLS
********************

<–- BEGIN FORUMS PASTE –->
                                                                                                                Total   Video                                             
Title                                                           Codec   Length  Movie Size      Disc Size       Bitrate Bitrate Main Audio Track                          Secondary Audio Track
-----                                                           ------  ------- --------------  --------------  ------- ------- ------------------                        ---------------------
00207.MPLS                                                      AVC     0:00:22 70 453 248      38 423 649 253  25,59   24,00   DD AC3 5.1 448Kbps                        


DISC INFO:

Disc Title:     SKELETONTWINS_HDACCESS
Disc Size:      38 423 649 253 bytes
Protection:     AACS
BD-Java:        Yes
BDInfo:         0.5.8

PLAYLIST REPORT:

Name:                   00207.MPLS
Length:                 0:00:22.021 (h:m:s.ms)
Size:                   70 453 248 bytes
Total Bitrate:          25,59 Mbps

VIDEO:

Codec                   Bitrate             Description     
-----                   -------             -----------     
MPEG-4 AVC Video        23997 kbps          1080p / 23,976 fps / 16:9 / High Profile 4.1

AUDIO:

Codec                           Language        Bitrate         Description     
-----                           --------        -------         -----------     
Dolby Digital Audio             English         448 kbps        5.1 / 48 kHz / 448 kbps / DN -4dB

FILES:

Name            Time In         Length          Size            Total Bitrate   
----            -------         ------          ----            -------------   
00009.M2TS      0:00:00.000     0:00:22.021     70 453 248      25 594          

CHAPTERS:

Number          Time In         Length          Avg Video Rate  Max 1-Sec Rate  Max 1-Sec Time  Max 5-Sec Rate  Max 5-Sec Time  Max 10Sec Rate  Max 10Sec Time  Avg Frame Size  Max Frame Size  Max Frame Time  
------          -------         ------          --------------  --------------  --------------  --------------  --------------  --------------  --------------  --------------  --------------  --------------  
1               0:00:00.000     0:00:22.021     23 997 kbps     36 763 kbps     00:00:08.591    31 714 kbps     00:00:04.713    28 951 kbps     00:00:02.627    125 111 bytes   309 903 bytes   00:00:09.009    

STREAM DIAGNOSTICS:

File            PID             Type            Codec           Language                Seconds                 Bitrate                 Bytes           Packets         
----            ---             ----            -----           --------                --------------          --------------          -------------   -----           
00009.M2TS      4113 (0x1011)   0x1B            AVC                                     21,855                  24 180                  66 058 438      359 294         
00009.M2TS      4352 (0x1100)   0x81            AC3             eng (English)           21,855                  452                     1 234 688       6 890           

<–– END FORUMS PASTE ––>

QUICK SUMMARY:

Disc Title: SKELETONTWINS_HDACCESS
Disc Size: 38 423 649 253 bytes
Protection: AACS
BD-Java: Yes
Playlist: 00207.MPLS
Size: 70 453 248 bytes
Length: 0:00:22.021
Total Bitrate: 25,59 Mbps
Video: MPEG-4 AVC Video / 23997 kbps / 1080p / 23,976 fps / 16:9 / High Profile 4.1
Audio: English / Dolby Digital Audio / 5.1 / 48 kHz / 448 kbps / DN -4dB


The Skeleton Twins (2014)
The Skeleton Twins (2014)
The Skeleton Twins (2014)
The Skeleton Twins (2014)





Check my other uploads in my blog


<b>========================= DOWNLOAD INFO =========================</b>







================= NO MIRRORS PLEASE! =================